<?xml version="1.0" standalone="no"?>
<!DOCTYPE svg PUBLIC "-//W3C//DTD SVG 1.1//EN" "http://www.w3.org/Graphics/SVG/1.1/DTD/svg11.dtd" >
<svg xmlns="http://www.w3.org/2000/svg">
<metadata></metadata>
<defs>
<font id="texgyrescholaregular" horiz-adv-x="556" >
<font-face units-per-em="1000" ascent="798" descent="-202" />
<missing-glyph horiz-adv-x="278" />
<glyph unicode="&#xfb01;" horiz-adv-x="611" d="M16 423v43h95v9q0 131 67 196t180 65q68 0 108 -26.5t40 -70.5q0 -27 -17.5 -43.5t-45.5 -16.5q-26 0 -44 15t-18 37q0 9 4.5 20.5t8.5 19.5t4 9q0 16 -47 16q-146 0 -146 -209v-21h151q52 0 153 7v-391q0 -31 9.5 -38.5t55.5 -7.5h14v-36h-253v36h14q47 0 56.5 7.5 t9.5 39.5v271q0 49 -6.5 59t-36.5 10h-167v-341q0 -31 9.5 -38.5t55.5 -7.5h14v-36h-253v36h14q47 0 56.5 7.5t9.5 39.5v340h-95z" />
<glyph unicode="&#xfb02;" horiz-adv-x="611" d="M16 423v43h88v31q0 120 62 180t199 60h142v-654q0 -32 9.5 -39.5t56.5 -7.5h17v-36h-259v36h17q46 0 55.5 7.5t9.5 39.5v501q-13 -4 -22 -4q-20 0 -33.5 13.5t-13.5 35.5q0 7 8.5 22.5t8.5 26.5q0 19 -40 19q-62 0 -92.5 -41t-30.5 -133v-57h110v-43h-110v-340 q0 -30 13.5 -38.5t62.5 -8.5h18v-36h-267v36h14q46 0 55.5 7.5t9.5 39.5v340h-88z" />
<glyph unicode="&#xfb03;" horiz-adv-x="904" d="M19 423v43h88v31q0 123 51.5 181.5t143.5 58.5q61 0 96 -25t35 -69q0 -27 -15.5 -44t-40.5 -17q-23 0 -39 15.5t-16 37.5q0 8 4 18.5t7.5 18t3.5 8.5q0 17 -34 17q-51 0 -76.5 -41t-25.5 -133v-57h219v9q0 131 67 196t180 65q68 0 108 -26.5t40 -70.5q0 -27 -17.5 -43.5 t-45.5 -16.5q-26 0 -44 15t-18 37q0 9 4 20.5t8.5 19.5t4.5 9q0 16 -47 16q-146 0 -146 -209v-21h151q52 0 153 7v-391q0 -31 9.5 -38.5t55.5 -7.5h14v-36h-253v36h14q47 0 56.5 7.5t9.5 39.5v271q0 49 -6.5 59t-36.5 10h-167v-341q0 -31 9.5 -38.5t55.5 -7.5h14v-36h-253 v36h14q47 0 56.5 7.5t9.5 39.5v340h-219v-340q0 -30 13.5 -38.5t62.5 -8.5h18v-36h-267v36h14q46 0 55.5 7.5t9.5 39.5v340h-88z" />
<glyph unicode="&#xfb04;" horiz-adv-x="904" d="M19 423v43h88v31q0 123 51.5 181.5t143.5 58.5q61 0 96 -25t35 -69q0 -27 -15.5 -44t-40.5 -17q-23 0 -39 15.5t-16 37.5q0 8 4 18.5t7.5 18t3.5 8.5q0 17 -34 17q-51 0 -76.5 -41t-25.5 -133v-57h212v31q0 120 62 180t199 60h142v-654q0 -32 9.5 -39.5t56.5 -7.5h17v-36 h-259v36h17q46 0 55.5 7.5t9.5 39.5v501q-13 -4 -22 -4q-20 0 -33.5 13.5t-13.5 35.5q0 7 8.5 22.5t8.5 26.5q0 19 -40 19q-62 0 -92.5 -41t-30.5 -133v-57h110v-43h-110v-340q0 -30 13.5 -38.5t62.5 -8.5h18v-36h-267v36h14q46 0 55.5 7.5t9.5 39.5v340h-212v-340 q0 -30 13.5 -38.5t62.5 -8.5h18v-36h-267v36h14q46 0 55.5 7.5t9.5 39.5v340h-88z" />
<glyph horiz-adv-x="1000" />
<glyph horiz-adv-x="1000" />
<glyph unicode="&#xd;" horiz-adv-x="1000" />
<glyph unicode=" "  horiz-adv-x="278" />
<glyph unicode="&#x09;" horiz-adv-x="278" />
<glyph unicode="&#xa0;" horiz-adv-x="278" />
<glyph unicode="!" horiz-adv-x="296" d="M87 49q0 26 18.5 44t44.5 18t44 -18.5t18 -43.5q0 -26 -18.5 -44.5t-44.5 -18.5t-44 18.5t-18 44.5zM88 642q0 94 62 94q61 0 61 -95q0 -40 -18 -130q-14 -71 -18.5 -130t-5.5 -190h-39q-2 136 -6 193t-18 127q-18 90 -18 131z" />
<glyph unicode="&#x22;" horiz-adv-x="389" d="M61 694q0 18 12.5 30t30.5 12q19 0 31 -12t12 -31q0 -11 -1 -16l-31 -179h-22l-31 179q-1 6 -1 17zM242 693q0 19 12.5 31t30.5 12q19 0 31 -12t12 -31q0 -11 -1 -16l-31 -179h-22l-31 179q-1 6 -1 16z" />
<glyph unicode="#" d="M33 228v56h110l19 132h-102v56h110l31 214h65l-31 -214h123l31 214h65l-31 -214h101v-56h-109l-19 -132h101v-56h-109l-33 -228h-65l33 228h-123l-33 -228h-65l33 228h-102zM208 284h123l19 132h-123z" />
<glyph unicode="$" d="M45 148q0 37 20 61.5t51 24.5q26 0 43.5 -18t17.5 -44q0 -22 -10 -36t-36 -29q-8 -4 -8 -11q0 -23 37 -41.5t91 -22.5v279q-105 31 -149 75t-44 121q0 78 51 128t142 61v105h47v-104q82 -6 132 -46.5t50 -100.5q0 -33 -16.5 -51.5t-45.5 -18.5q-27 0 -43.5 16t-16.5 42 q0 17 7 28t29 27q6 6 6 10q0 16 -30.5 30.5t-71.5 18.5v-247q126 -42 169 -81t43 -122q0 -94 -56.5 -150.5t-155.5 -61.5v-120h-47v119q-95 5 -150.5 47.5t-55.5 111.5zM130 539q0 -43 27.5 -70t93.5 -49v230q-53 -4 -87 -35.5t-34 -75.5zM298 33q62 7 100 43.5t38 89.5 q0 50 -34 81.5t-104 50.5v-265z" />
<glyph unicode="%" horiz-adv-x="833" d="M45 445q0 91 74 177t159 86q55 0 91 -47q39 -22 73 -22q101 0 162 83h46l-414 -722h-50l360 631q-49 -29 -96 -29q-30 0 -63 12q3 -22 3 -32q0 -97 -67 -179t-150 -82q-56 0 -92 35t-36 89zM132 418q0 -26 15.5 -42.5t40.5 -16.5q60 0 112.5 72.5t52.5 155.5q0 22 -6 41 q-37 13 -61 41q-31 -11 -47.5 -27t-44.5 -66q-62 -108 -62 -158zM445 136q0 93 72 179t158 86q51 0 84 -33.5t33 -85.5q0 -89 -65 -178t-152 -89q-56 0 -93 34.5t-37 86.5zM530 111q0 -24 16.5 -40.5t39.5 -16.5q60 0 114 72t54 154q0 34 -18 57.5t-44 23.5q-44 0 -88 -73 q-74 -120 -74 -177z" />
<glyph unicode="&#x26;" horiz-adv-x="815" d="M51 189q0 67 44.5 124t128.5 98q-42 89 -42 149q0 80 48 128.5t127 48.5q70 0 113 -37.5t43 -97.5q0 -65 -40.5 -107.5t-132.5 -83.5q88 -162 161 -248q70 81 70 151q0 47 -80 47h-20v43h282v-43h-21q-42 -1 -68 -27l-5 -5t-5 -5.5t-4.5 -5.5t-4.5 -7.5t-5 -9t-7 -12.5 t-9 -16t-11.5 -21.5t-14.5 -26.5q-25 -45 -66 -96q57 -61 110 -61q33 0 56.5 27t32.5 74l44 -6q-11 -84 -58.5 -129t-116.5 -45q-41 0 -73.5 15t-68.5 52q-92 -71 -192 -71q-98 0 -156.5 60t-58.5 144zM158 243q0 -75 51 -132.5t117 -57.5q43 0 101 37q-63 74 -98.5 128 t-85.5 152q-45 -26 -65 -56t-20 -71zM276 595q0 -53 43 -142q60 30 87 63t27 84q0 41 -22 67.5t-57 26.5q-34 0 -56 -28t-22 -71z" />
<glyph unicode="'" horiz-adv-x="204" d="M59 694q0 18 12.5 30t30.5 12q19 0 31 -12t12 -31q0 -11 -1 -16l-31 -179h-22l-31 179q-1 6 -1 17z" />
<glyph unicode="(" horiz-adv-x="333" d="M36 307q0 278 243 429v-37q-75 -66 -107.5 -157t-32.5 -235t32.5 -235.5t107.5 -157.5v-37q-243 150 -243 430z" />
<glyph unicode=")" horiz-adv-x="333" d="M54 -86q75 66 107.5 157t32.5 236q0 144 -32.5 235t-107.5 157v37q122 -74 182.5 -184.5t60.5 -244.5q0 -281 -243 -430v37z" />
<glyph unicode="*" horiz-adv-x="500" d="M56 428q0 42 52 48q54 6 89 25l31 17l-31 18q-32 19 -89 25q-52 5 -52 48q0 16 12.5 27.5t29.5 11.5q24 0 44 -28t33.5 -41t32.5 -24l31 -18v36q0 24 -3.5 38t-19.5 51q-8 19 -8 30q0 17 12.5 30.5t28.5 13.5t29 -13.5t13 -30.5q0 -12 -17 -52q-14 -31 -14 -67v-36l31 18 q33 19 66 65q20 28 44 28q17 0 29.5 -11.5t12.5 -27.5q0 -42 -52 -48q-56 -6 -89 -25l-31 -18l31 -18q19 -11 34.5 -15t54.5 -9q52 -6 52 -48q0 -16 -12.5 -27.5t-29.5 -11.5q-24 0 -44 28q-33 46 -66 65l-31 18v-36q0 -24 4 -38.5t19 -51.5q8 -19 8 -31q0 -16 -13 -29.5 t-29 -13.5t-29 14t-13 30q0 11 8 30q16 36 20 51t4 39v36l-31 -18q-34 -20 -66 -66q-20 -27 -44 -27q-17 0 -29.5 11.5t-12.5 27.5z" />
<glyph unicode="+" horiz-adv-x="606" d="M40 210v80h223v223h80v-223h223v-80h-223v-223h-80v223h-223z" />
<glyph unicode="," horiz-adv-x="278" d="M64 -155q101 71 101 136q0 9 -7 9h-3q-2 -1 -16 -1q-31 0 -49.5 16t-18.5 43q0 26 18.5 43t46.5 17q37 0 59.5 -27t22.5 -72q0 -102 -131 -192z" />
<glyph unicode="-" horiz-adv-x="333" d="M42 195v83h249v-83h-249z" />
<glyph unicode="." horiz-adv-x="278" d="M74 49q0 26 18.5 44t44.5 18q25 0 43.5 -18.5t18.5 -43.5q0 -26 -18.5 -44.5t-44.5 -18.5t-44 18.5t-18 44.5z" />
<glyph unicode="/" horiz-adv-x="278" d="M-23 -14l267 750h58l-267 -750h-58z" />
<glyph unicode="0" d="M42 342q0 157 68.5 259.5t173.5 102.5q103 0 166.5 -104.5t63.5 -260.5t-66.5 -255t-171.5 -99q-101 0 -167.5 101.5t-66.5 255.5zM153 363q0 -123 7.5 -180.5t28.5 -92.5q37 -62 89 -62q60 0 97 79q27 59 27 250q0 102 -8 154.5t-28 87.5q-37 62 -89 62q-61 0 -97 -80 q-27 -58 -27 -218z" />
<glyph unicode="1" d="M100 0v47h65q60 0 74.5 7.5t14.5 39.5v430q0 44 -9 53.5t-53 9.5h-88v43q68 0 130 21.5t88 52.5h36q-7 -99 -7 -168v-413q0 -41 1 -49t6 -13q11 -14 83 -14h55v-47h-396z" />
<glyph unicode="2" d="M35 0v28q57 75 98 123l137 146q62 66 90 120t28 109q0 63 -35 99t-97 36q-55 0 -96.5 -32t-41.5 -71q0 -10 5.5 -14t33.5 -16q36 -15 36 -57q0 -27 -17 -44t-45 -17q-36 0 -58 29.5t-22 76.5q0 80 65 134t160 54q98 0 161.5 -55t63.5 -140q0 -73 -48 -137 q-27 -37 -153 -135q-48 -38 -76 -63.5t-80 -79.5h224q46 0 59.5 11.5t23.5 59.5l10 51h44l-19 -216h-451z" />
<glyph unicode="3" d="M42 149q0 39 20 63.5t51 24.5q28 0 46 -18t18 -45q0 -37 -39 -59q-16 -9 -19 -12t-3 -10q0 -23 42 -44t89 -21q67 0 103.5 42.5t36.5 119.5q0 74 -29 113t-85 39q-2 0 -8 -0.5t-21.5 -1t-41.5 -0.5q-31 0 -31 25q0 27 32 27q9 0 32 -1.5t30 -1.5q110 0 110 142 q0 130 -110 130q-42 0 -78.5 -18.5t-36.5 -39.5q0 -9 13 -18q31 -22 31 -51q0 -27 -16.5 -43.5t-42.5 -16.5q-29 0 -47.5 19.5t-18.5 50.5q0 68 59 114t147 46q93 0 148.5 -47t55.5 -125q0 -116 -133 -164q152 -43 152 -180q0 -92 -65.5 -147.5t-173.5 -55.5 q-96 0 -156.5 45.5t-60.5 118.5z" />
<glyph unicode="4" d="M28 175v56l340 473h43q-5 -75 -5 -200v-273h121v-56h-121v-81q0 -33 10.5 -40t69.5 -7h14v-47h-292v47h21q59 0 69.5 7t10.5 40v81h-281zM89 231h220v303z" />
<glyph unicode="5" d="M45 149q0 35 21 59.5t51 24.5q27 0 45 -18t18 -44q0 -20 -8.5 -32.5t-31.5 -26.5q-18 -10 -18 -22q0 -23 38.5 -42.5t83.5 -19.5q149 0 149 190q0 85 -38 134t-105 49q-58 0 -108 -36q-6 -61 -45 -61q-14 0 -23 9.5t-9 24.5q0 22 28 51q21 184 27 315q126 -30 206 -30 q72 0 133 26q7 4 13 4q8 0 8 -9q0 -10 -15 -36q-51 -85 -180 -85q-50 0 -121 17l-17 -170q72 30 129 30q101 0 163.5 -62.5t62.5 -164.5q0 -110 -69 -174.5t-187 -64.5q-90 0 -145.5 47.5t-55.5 116.5z" />
<glyph unicode="6" d="M42 308q0 105 33 193.5t101 145.5t158 57q71 0 117.5 -34t46.5 -86q0 -31 -18.5 -51.5t-47.5 -20.5q-26 0 -43.5 17t-17.5 42q0 19 15 47q5 9 5 14q0 29 -56 29q-99 0 -145 -112q-16 -38 -22.5 -76t-14.5 -133q67 90 165 90q85 0 141.5 -59t56.5 -147q0 -98 -66 -168.5 t-164 -70.5q-111 0 -177.5 88.5t-66.5 234.5zM160 203q0 -74 37.5 -124.5t90.5 -50.5q55 0 87 51.5t32 137.5q0 71 -31 111.5t-85 40.5q-61 0 -96 -44.5t-35 -121.5z" />
<glyph unicode="7" d="M59 462l31 242q156 -10 262 -10q82 0 156 6v-29q-3 -6 -5 -11.5t-3.5 -8.5t-1.5 -4l-45 -94q-73 -162 -97 -241.5t-24 -168.5q0 -6 0.5 -18.5t0.5 -19.5q0 -65 -15 -92t-51 -27q-29 0 -46 20t-17 54q0 62 47 180q16 40 108 227l68 137l-62 -1q-21 0 -91 3.5t-102 3.5 q-22 0 -31 -13.5t-20 -62.5l-18 -79z" />
<glyph unicode="8" d="M41 168q0 62 34.5 104t111.5 72q-113 60 -113 169q0 83 60 137t151 54q86 0 142.5 -45t56.5 -114q0 -95 -110 -155q73 -33 106 -78.5t33 -110.5q0 -96 -66 -156t-180 -60q-103 0 -164.5 50.5t-61.5 132.5zM124 168q0 -66 39 -103t109 -37q74 0 117.5 35.5t43.5 95.5 q0 49 -25.5 80.5t-82.5 51.5l-92 33q-58 -27 -83.5 -63.5t-25.5 -92.5zM151 555q0 -44 28 -74t88 -52l66 -24q43 36 60 65.5t17 68.5q0 55 -35 88.5t-93 33.5q-59 0 -95 -29.5t-36 -76.5z" />
<glyph unicode="9" d="M39 463q0 101 66.5 171t162.5 70q112 0 178.5 -89.5t66.5 -240.5q0 -106 -33 -193t-101 -141.5t-160 -54.5q-69 0 -115.5 33.5t-46.5 82.5q0 30 20 51t48 21q25 0 42 -17t17 -42q0 -16 -14 -44q-6 -12 -6 -17q0 -11 15.5 -18t40.5 -7q50 0 89.5 31t58.5 86q21 58 36 202 q-41 -51 -77.5 -71t-89.5 -20q-85 0 -141.5 59t-56.5 148zM148 481q0 -79 31 -122t88 -43t92.5 41.5t35.5 117.5q0 84 -33.5 135t-89.5 51q-57 0 -90.5 -48.5t-33.5 -131.5z" />
<glyph unicode=":" horiz-adv-x="278" d="M86 49q0 26 18.5 44t44.5 18q25 0 43.5 -18.5t18.5 -43.5q0 -26 -18.5 -44.5t-44.5 -18.5t-44 18.5t-18 44.5zM86 411q0 26 18.5 44t44.5 18q25 0 43.5 -18.5t18.5 -43.5q0 -26 -18.5 -44.5t-44.5 -18.5t-44 18.5t-18 44.5z" />
<glyph unicode=";" horiz-adv-x="278" d="M72 -155q101 71 101 136q0 9 -7 9h-3q-2 -1 -16 -1q-31 0 -49.5 16t-18.5 43q0 26 18.5 43t46.5 17q37 0 59.5 -27t22.5 -72q0 -102 -131 -192zM87 410q0 26 18.5 44t44.5 18t44 -18t18 -44t-18.5 -44.5t-44.5 -18.5t-44 18.5t-18 44.5z" />
<glyph unicode="&#x3c;" horiz-adv-x="606" d="M63 214v72l463 224v-88l-354 -172l354 -172v-88z" />
<glyph unicode="=" horiz-adv-x="606" d="M40 120v80h526v-80h-526zM40 300v80h526v-80h-526z" />
<glyph unicode="&#x3e;" horiz-adv-x="606" d="M63 -10v88l354 172l-354 172v88l463 -224v-72z" />
<glyph unicode="?" horiz-adv-x="444" d="M25 588q0 64 55 106t140 42q86 0 138.5 -48t52.5 -126q0 -52 -23.5 -89.5t-96.5 -101.5q-48 -42 -61 -74t-13 -106h-44v32q0 62 14 101q2 7 4 12t4 9.5t5.5 10.5t6.5 10.5t10.5 15t13.5 19t19 26.5t24 33q32 45 32 108q0 58 -29.5 90.5t-82.5 32.5q-36 0 -64 -15t-28 -35 q0 -3 22.5 -30t22.5 -45q0 -23 -16.5 -39t-40.5 -16q-28 0 -46.5 22t-18.5 55zM130 48q0 26 18.5 44t44.5 18q25 0 43.5 -18t18.5 -44t-18.5 -44.5t-44.5 -18.5t-44 18.5t-18 44.5z" />
<glyph unicode="@" horiz-adv-x="737" d="M43 356q0 162 100 271t246 109q131 0 223.5 -88.5t92.5 -212.5q0 -106 -71 -197t-157 -91q-31 0 -50 18t-19 47q0 12 1 20q-29 -43 -53.5 -61t-54.5 -18q-52 0 -88.5 42t-36.5 107q0 91 63 166t138 75q59 0 78 -65l16 56h88l-73 -289q-4 -16 -4 -30q0 -10 7.5 -17 t18.5 -7q47 0 96 77.5t49 159.5q0 102 -75.5 179.5t-183.5 77.5q-128 0 -211.5 -91.5t-83.5 -232.5q0 -142 84.5 -233t215.5 -91q153 0 238 151h61q-37 -85 -122 -143.5t-185 -58.5q-148 0 -248 106.5t-100 263.5zM266 271q0 -37 12.5 -57.5t35.5 -20.5q29 0 58 40 t46.5 95.5t17.5 101.5q0 33 -12 52.5t-33 19.5q-33 0 -63 -43t-46 -96t-16 -92z" />
<glyph unicode="A" horiz-adv-x="722" d="M-8 0v47h14q37 0 55 19t45 87l230 583h42l255 -625q18 -43 30 -53.5t49 -10.5h19v-47h-310v47h42q62 0 62 26q0 7 -8 27l-54 134h-265l-33 -88q-9 -24 -9 -42q0 -57 81 -57h20v-47h-265zM218 288h224l-113 284z" />
<glyph unicode="B" horiz-adv-x="722" d="M30 0v47h18q61 0 75.5 7.5t14.5 39.5v534q0 32 -14.5 39.5t-75.5 7.5h-18v47h359q115 0 179 -45t64 -131q0 -63 -41 -107.5t-121 -61.5q102 -18 151 -62.5t49 -118.5q0 -92 -73.5 -144t-203.5 -52h-363zM250 110q0 -41 10 -52t48 -11h42q107 0 152 33t45 119 q0 83 -46.5 117t-162.5 34h-88v-240zM250 397h89q96 0 136.5 31t40.5 105q0 73 -37 107.5t-123 34.5h-40q-39 0 -52.5 -10.5t-13.5 -39.5v-228z" />
<glyph unicode="C" horiz-adv-x="722" d="M45 354q0 157 100.5 270t238.5 113q50 0 87 -14t90 -53l40 59h53v-289h-44q-31 104 -57 149q-29 48 -73.5 74.5t-96.5 26.5q-103 0 -154.5 -87t-51.5 -253q0 -161 53.5 -239.5t164.5 -78.5q184 0 226 223l47 -8q-17 -126 -91 -194t-194 -68q-148 0 -243 104t-95 265z" />
<glyph unicode="D" horiz-adv-x="778" d="M29 0v47h19q60 0 74.5 7.5t14.5 39.5v534q0 32 -14.5 39.5t-74.5 7.5h-19v47h318q163 0 243 -51q69 -45 105.5 -124.5t36.5 -181.5q0 -178 -92 -271.5t-275 -93.5h-336zM249 102q0 -37 9.5 -46t47.5 -9h68q121 0 173.5 73t52.5 241q0 166 -57 240t-185 74h-52 q-37 0 -47 -9.5t-10 -46.5v-517z" />
<glyph unicode="E" horiz-adv-x="722" d="M29 0v47h18q61 0 75.5 7.5t14.5 39.5v534q0 32 -14.5 39.5t-75.5 7.5h-18v47h615v-256h-43q-11 68 -25.5 107t-42 63t-66 31.5t-103.5 7.5h-52q-41 0 -52 -9t-11 -41v-228h24q71 0 103.5 32t36.5 105h47v-328h-47q-2 78 -29.5 111t-114.5 33h-20v-255q0 -30 15.5 -39 t56.5 -9h66q114 0 161 46.5t71 173.5h44l-20 -267h-614z" />
<glyph unicode="F" horiz-adv-x="667" d="M29 0v47h18q61 0 75.5 7.5t14.5 39.5v534q0 32 -14.5 39.5t-75.5 7.5h-18v47h609v-256h-44q-21 128 -66.5 168.5t-169.5 40.5h-46q-41 0 -52 -9t-11 -41v-228h24q71 0 103.5 32t36.5 105h47v-328h-47q-2 79 -29.5 111.5t-114.5 32.5h-20v-256q0 -32 14.5 -39.5t75.5 -7.5 h33v-47h-343z" />
<glyph unicode="G" horiz-adv-x="778" d="M42 348q0 101 43 189.5t124 144t182 55.5q55 0 94 -15t88 -54l39 61h52v-281h-43q-62 242 -234 242q-104 0 -158.5 -87.5t-54.5 -254.5q0 -155 55.5 -235.5t160.5 -80.5q83 0 128.5 49.5t45.5 140.5q0 41 -14 50.5t-77 9.5h-19v47h318v-47h-15q-71 0 -84 -14 q-6 -7 -6 -62v-220h-42l-37 90q-49 -49 -97 -70t-111 -21q-144 0 -241 102t-97 261z" />
<glyph unicode="H" horiz-adv-x="833" d="M29 0v47h18q61 0 75.5 7.5t14.5 39.5v534q0 32 -14.5 39.5t-75.5 7.5h-18v47h329v-47h-19q-61 0 -75.5 -7.5t-14.5 -39.5v-227h335v227q0 32 -14.5 39.5t-75.5 7.5h-14v47h324v-47h-18q-61 0 -75.5 -7.5t-14.5 -39.5v-534q0 -32 14.5 -39.5t75.5 -7.5h18v-47h-328v47h18 q61 0 75.5 7.5t14.5 39.5v253h-335v-253q0 -32 14.5 -39.5t75.5 -7.5h19v-47h-329z" />
<glyph unicode="I" horiz-adv-x="407" d="M38 0v47h20q61 0 75.5 7.5t14.5 39.5v534q0 32 -14.5 39.5t-75.5 7.5h-20v47h331v-47h-20q-60 0 -74.5 -7.5t-14.5 -39.5v-534q0 -32 14.5 -39.5t74.5 -7.5h20v-47h-331z" />
<glyph unicode="J" d="M5 155q0 53 28 87.5t72 34.5q33 0 54 -20t21 -52q0 -31 -18 -51.5t-45 -20.5q-16 0 -37 5h-3q-12 0 -12 -16q0 -35 36 -62.5t85 -27.5q89 0 118 87q13 39 13 158v351q0 32 -14.5 39.5t-74.5 7.5h-19v47h328v-47h-19q-61 0 -75.5 -7.5t-14.5 -39.5v-360q0 -159 -53 -221 t-171 -62q-94 0 -146.5 47.5t-52.5 122.5z" />
<glyph unicode="K" horiz-adv-x="778" d="M30 0v47h18q61 0 75.5 7.5t14.5 39.5v534q0 32 -14.5 39.5t-75.5 7.5h-18v47h329v-47h-19q-61 0 -75.5 -7.5t-14.5 -39.5v-301l245 246q49 49 49 72q0 30 -65 30h-25v47h308v-47q-94 0 -169 -80l-149 -149l242 -349q22 -33 39 -41.5t59 -8.5h19v-47h-342v47h31 q68 0 68 23q0 12 -20 42l-174 255l-116 -117v-156q0 -32 14.5 -39.5t75.5 -7.5h19v-47h-329z" />
<glyph unicode="L" horiz-adv-x="667" d="M35 0v47h18q61 0 75.5 7.5t14.5 39.5v534q0 32 -14.5 39.5t-75.5 7.5h-18v47h328v-47h-18q-61 0 -75.5 -7.5t-14.5 -39.5v-533q0 -30 15.5 -39t56.5 -9h42q119 0 167 51.5t66 175.5h44l-21 -274h-590z" />
<glyph unicode="M" horiz-adv-x="944" d="M22 0v47q72 3 94 35t22 134v412q0 32 -14.5 39.5t-75.5 7.5h-19v47h258l192 -533l183 533h251v-47h-18q-61 0 -75.5 -7.5t-14.5 -39.5v-534q0 -32 14.5 -39.5t75.5 -7.5h18v-47h-328v47h18q61 0 75.5 7.5t14.5 39.5v564l-223 -658h-40l-238 658v-442q0 -102 22 -134 t93 -35v-47h-285z" />
<glyph unicode="N" horiz-adv-x="815" d="M19 675v47h206l399 -531v314q0 103 -22 135t-93 35v47h285v-47q-72 -3 -94 -35t-22 -135v-519h-42l-446 602v-371q0 -103 22 -135t93 -35v-47h-285v47q72 3 94 35t22 135v425q-13 19 -33.5 26t-58.5 7h-25z" />
<glyph unicode="O" horiz-adv-x="778" d="M45 360q0 157 97.5 267t250.5 110q144 0 242 -108.5t98 -267.5q0 -161 -98.5 -268.5t-245.5 -107.5q-146 0 -245 107.5t-99 267.5zM177 363q0 -170 53 -250.5t159 -80.5q212 0 212 329t-209 329q-108 0 -161.5 -79.5t-53.5 -247.5z" />
<glyph unicode="P" horiz-adv-x="667" d="M28 0v47h18q61 0 75.5 7.5t14.5 39.5v534q0 32 -14.5 39.5t-75.5 7.5h-18v47h350q135 0 203 -51.5t68 -146.5q0 -59 -29 -105.5t-82 -71.5q-55 -26 -177 -26h-113v-227q0 -32 14.5 -39.5t75.5 -7.5h26v-47h-336zM248 368h121q157 0 157 152q0 79 -37.5 117t-115.5 38h-64 q-41 0 -51 -8.5t-10 -42.5v-256z" />
<glyph unicode="Q" horiz-adv-x="778" d="M45 360q0 151 99 264t244 113t245.5 -107t100.5 -261q0 -195 -158 -326q26 -82 45.5 -116.5t41.5 -34.5q19 0 27.5 20t12.5 68h45q0 -79 -34 -124t-94 -45q-62 0 -97.5 49.5t-38.5 139.5q-45 -15 -89 -15q-146 0 -248 109t-102 266zM177 360q0 -171 59 -249q-1 8 -1 18 q0 60 40.5 98t103.5 38t107.5 -38t63.5 -108q29 47 40.5 101.5t11.5 142.5q0 162 -51 244.5t-161 82.5q-112 0 -162.5 -89.5t-50.5 -240.5zM281 119q0 -41 27.5 -64t77.5 -23q51 0 94 22v10q0 74 -27.5 114t-78.5 40q-41 0 -67 -27.5t-26 -71.5z" />
<glyph unicode="R" horiz-adv-x="722" d="M26 0v47h18q61 0 75.5 7.5t14.5 39.5v534q0 32 -14.5 39.5t-75.5 7.5h-18v47h346q126 0 195 -47t69 -132q0 -149 -213 -179q59 -15 90.5 -50t48.5 -104l16 -63q13 -53 22.5 -69.5t27.5 -16.5q20 0 30 23.5t13 75.5h42q-2 -90 -32 -132.5t-92 -42.5q-59 0 -89.5 37.5 t-38.5 121.5l-5 51q-9 86 -45.5 120.5t-106.5 34.5h-58v-256q0 -32 14.5 -39.5t75.5 -7.5h18v-47h-328zM246 397h110q78 0 117.5 34t39.5 111q0 68 -35 100.5t-109 32.5h-54q-48 0 -58.5 -5t-10.5 -28v-245z" />
<glyph unicode="S" horiz-adv-x="630" d="M51 277h43q21 -107 78 -171q68 -75 174 -75q75 0 121 40q45 41 45 100q0 60 -46 95q-15 12 -30 17t-72 20l-95 24q-110 29 -155.5 74t-45.5 127q0 94 60.5 151.5t158.5 57.5q110 0 182 -69l40 60h37l12 -260h-43q-20 77 -60 134q-61 87 -167 87q-64 0 -103 -32.5 t-39 -85.5q0 -89 131 -123l107 -27q109 -27 146 -63q60 -58 60 -153q0 -101 -65.5 -160.5t-175.5 -59.5q-65 0 -112.5 17t-97.5 58l-45 -68h-39z" />
<glyph unicode="T" horiz-adv-x="667" d="M19 444l15 278h599l15 -278h-43q-12 85 -33 137q-19 45 -54 69.5t-81 24.5q-47 0 -47 -36v-545q0 -32 14.5 -39.5t74.5 -7.5h26v-47h-343v47h26q61 0 75.5 7.5t14.5 39.5v545q0 36 -47 36q-102 0 -142 -111q-17 -50 -27 -120h-43z" />
<glyph unicode="U" horiz-adv-x="815" d="M17 675v47h327v-47h-19q-61 0 -75.5 -7.5t-14.5 -39.5v-364q0 -113 43 -169t149 -56q110 0 156 64.5t46 180.5v221q0 103 -22 135t-93 35v47h285v-47q-72 -3 -94 -35t-22 -135v-227q0 -154 -71.5 -223.5t-211.5 -69.5q-129 0 -203 53t-74 163v427q0 32 -14.5 39.5 t-74.5 7.5h-17z" />
<glyph unicode="V" horiz-adv-x="722" d="M-8 675v47h312v-47h-40q-62 0 -62 -25q0 -11 8 -30l183 -465l155 412q12 33 12 56q0 24 -21.5 38t-59.5 14h-19v47h271v-47h-18q-41 0 -59.5 -18.5t-41.5 -79.5l-230 -592h-40l-253 634q-14 34 -29 45t-48 11h-20z" />
<glyph unicode="W" horiz-adv-x="981" d="M6 675v47h282v-47h-45q-43 0 -43 -20q0 -10 5 -25l144 -448l116 384l-26 78q-6 18 -19 24.5t-44 6.5h-23v47h289v-47h-16q-33 0 -49.5 -3.5t-19.5 -8.5t-3 -15q0 -6 7 -28l138 -438l120 406q6 16 6 35q0 27 -17 39.5t-59 12.5h-18v47h245v-47h-14q-40 0 -56.5 -20 t-34.5 -83l-176 -587h-41l-162 497l-148 -497h-43l-216 651q-9 26 -19 32.5t-41 6.5h-19z" />
<glyph unicode="X" horiz-adv-x="704" d="M-6 675v47h309v-47h-38q-48 0 -48 -13q0 -9 11 -25l133 -192l108 157q14 20 14 34q0 21 -12 30t-47 9h-24v47h275v-47h-16q-40 0 -68 -19t-69 -75l-133 -181l210 -301q26 -37 40.5 -44.5t62.5 -7.5h14v-47h-328v47h28q46 0 56.5 3t10.5 15q0 11 -13 31l-149 211 l-116 -168q-16 -24 -16 -44q0 -22 17.5 -35t47.5 -13h25v-47h-284v47h14q37 -1 63 17.5t58 62.5l162 225l-197 285q-17 25 -32 31.5t-52 6.5h-17z" />
<glyph unicode="Y" horiz-adv-x="704" d="M-13 675v47h321v-47h-59q-39 0 -39 -19q0 -12 11 -28l168 -271l124 221q17 31 17 52q0 24 -18.5 34.5t-59.5 10.5h-23v47h284v-47h-16q-44 0 -69 -21t-61 -86l-149 -269v-205q0 -32 14 -39.5t75 -7.5h26v-47h-343v47h26q61 0 75.5 7.5t14.5 39.5v193l-216 342 q-17 28 -33 37t-48 9h-22z" />
<glyph unicode="Z" horiz-adv-x="611" d="M24 0v36l409 639h-130q-101 0 -141 -40.5t-64 -165.5h-45l20 253h496v-36l-411 -639h166q105 0 144 52q41 50 60 179h47l-18 -278h-533z" />
<glyph unicode="[" horiz-adv-x="333" d="M66 -108v830h231v-37h-141v-757h141v-36h-231z" />
<glyph unicode="\" horiz-adv-x="606" d="M74 737h58l400 -737h-58z" />
<glyph unicode="]" horiz-adv-x="333" d="M36 -71h140v757h-140v36h230v-830h-230v37z" />
<glyph unicode="^" horiz-adv-x="606" d="M52 318l209 404h85l208 -404h-87l-163 311l-165 -311h-87z" />
<glyph unicode="_" horiz-adv-x="500" d="M0 -73h500v-61h-500v61z" />
<glyph unicode="`" horiz-adv-x="333" d="M17 660q0 14 10.5 24.5t24.5 10.5q19 0 50 -31l140 -140h-41l-159 97q-25 15 -25 39z" />
<glyph unicode="a" d="M44 102q0 74 70 115.5t244 71.5v39q0 62 -27 86t-81 24q-36 0 -62.5 -11.5t-26.5 -27.5q0 -1 11 -22t11 -32q0 -22 -15.5 -36.5t-38.5 -14.5q-26 0 -42 17t-16 45q0 54 55.5 89.5t139.5 35.5q94 0 140 -34t46 -125v-201q0 -38 8.5 -53.5t29.5 -15.5q2 0 18.5 5.5 t24.5 5.5q10 0 10 -12q0 -22 -29 -40t-63 -18q-35 0 -55.5 16.5t-32.5 54.5q-67 -79 -174 -79q-66 0 -105.5 32t-39.5 85zM145 116q0 -34 22.5 -56t56.5 -22q32 0 63.5 17t50.5 45q13 20 16.5 37.5t3.5 62.5v46q-127 -21 -170 -48.5t-43 -81.5z" />
<glyph unicode="b" d="M8 683v43l172 11v-334q28 43 59 60.5t77 17.5q90 0 147 -68.5t57 -176.5t-61.5 -179.5t-153.5 -71.5q-90 0 -150 79l-49 -78h-38q18 82 18 258v389q0 32 -7.5 41t-35.5 9h-35zM175 224q0 -92 33.5 -144t92.5 -52q55 0 84.5 51.5t29.5 146.5q0 98 -30.5 151t-86.5 53 q-60 0 -91.5 -53t-31.5 -153z" />
<glyph unicode="c" horiz-adv-x="444" d="M34 225q0 112 63 184t160 72q67 0 111.5 -34.5t44.5 -84.5q0 -30 -17.5 -49t-43.5 -19t-43 15.5t-17 40.5q0 22 20 46q6 9 6 12q0 12 -17 21t-39 9q-55 0 -89 -55.5t-34 -146.5q0 -88 35 -139t95 -51q39 0 66.5 23.5t51.5 77.5l39 -15q-32 -80 -74 -113.5t-109 -33.5 q-93 0 -151 66.5t-58 173.5z" />
<glyph unicode="d" horiz-adv-x="574" d="M43 228q0 108 57 180.5t142 72.5q84 0 138 -74v226q0 32 -8 41t-35 9h-59v43l196 11v-621q0 -47 11 -60t51 -13h18v-43l-174 -7v79q-46 -87 -138 -87q-87 0 -143 68.5t-56 174.5zM148 216q0 -83 30 -130t83 -47q54 0 86 52.5t32 139.5q0 73 -19 120q-13 34 -40 55t-58 21 t-56.5 -20t-38.5 -53q-19 -50 -19 -138z" />
<glyph unicode="e" horiz-adv-x="500" d="M35 220q0 112 64 186.5t160 74.5q92 0 149 -71.5t57 -184.5h-324q0 -92 37.5 -139t101.5 -47q50 0 84.5 24.5t65.5 82.5l35 -19q-61 -142 -204 -142q-101 0 -163.5 65t-62.5 170zM142 268h175q24 0 32.5 7.5t8.5 29.5q0 60 -27.5 96.5t-73.5 36.5q-48 0 -81.5 -46.5 t-33.5 -123.5z" />
<glyph unicode="f" horiz-adv-x="333" d="M19 423v43h88v31q0 123 51.5 181.5t143.5 58.5q61 0 96 -25t35 -69q0 -27 -15.5 -44t-40.5 -17q-23 0 -39 15.5t-16 37.5q0 8 4 18.5t7.5 18t3.5 8.5q0 17 -34 17q-51 0 -76.5 -41t-25.5 -133v-57h110v-43h-110v-340q0 -30 13.5 -38.5t62.5 -8.5h18v-36h-267v36h14 q46 0 55.5 7.5t9.5 39.5v340h-88z" />
<glyph unicode="g" horiz-adv-x="537" d="M23 -100q0 62 92 95q-67 23 -67 86q0 41 22.5 65t72.5 35q-39 18 -61.5 54t-22.5 80q0 75 54 120.5t143 45.5q67 0 124 -38q35 32 53.5 42t42.5 10q29 0 47.5 -16t18.5 -42q0 -20 -13 -34t-32 -14t-30 12.5t-16 25.5t-9 13q-11 0 -34 -24q37 -44 37 -98q0 -103 -94 -145 q-25 -11 -48.5 -14.5t-94.5 -4.5q-50 -1 -72 -11.5t-22 -33.5q0 -19 12 -26q18 -9 70 -9h102q91 0 127 -14q28 -11 44 -39.5t16 -65.5q0 -158 -251 -158q-101 0 -156 27t-55 76zM106 -92q0 -34 34.5 -52t97.5 -18q84 0 130.5 23.5t46.5 66.5q0 24 -17.5 39.5t-47.5 18.5 q-15 2 -104 2h-74q-36 -19 -51 -37t-15 -43zM150 314q0 -56 27 -89t74 -33q48 0 75 33t27 92q0 58 -25.5 89.5t-72.5 31.5q-50 0 -77.5 -32.5t-27.5 -91.5z" />
<glyph unicode="h" horiz-adv-x="611" d="M15 683v43l185 11v-353q65 97 158 97q45 0 80.5 -20.5t54.5 -56.5q13 -25 17 -47.5t4 -76.5v-197q0 -32 9.5 -39.5t55.5 -7.5h14v-36h-253v36h14q47 0 56.5 7.5t9.5 39.5v201q0 69 -22 101q-11 15 -31.5 25t-39.5 10q-32 0 -62.5 -21t-46.5 -55q-18 -38 -18 -118v-143 q0 -32 9.5 -39.5t56.5 -7.5h14v-36h-253v36h14q46 0 55.5 7.5t9.5 39.5v550q0 32 -7.5 41t-35.5 9h-48z" />
<glyph unicode="i" horiz-adv-x="315" d="M18 412v43l188 11v-383q0 -31 11.5 -39t59.5 -8h12v-36h-259v36h12q47 0 58.5 8t11.5 39v279q0 32 -7.5 41t-35.5 9h-51zM109 610q0 20 15 35t35 15t35 -15t15 -35q0 -21 -15 -35.5t-36 -14.5q-20 0 -34.5 15t-14.5 35z" />
<glyph unicode="j" horiz-adv-x="296" d="M-82 -120q0 26 16 43t40 17q21 0 36.5 -14t15.5 -33q0 -9 -7 -24q-5 -13 -5 -16q0 -13 25 -13q16 0 32 10t23 25q19 39 19 148v339q0 32 -7.5 41t-35.5 9h-58v43l195 11v-395q0 -85 -9 -130t-32 -78q-47 -65 -136 -65q-50 0 -81 22.5t-31 59.5zM110 610q0 20 15 35t35 15 t35 -15t15 -35q0 -21 -15 -35.5t-36 -14.5q-20 0 -34.5 15t-14.5 35z" />
<glyph unicode="k" horiz-adv-x="593" d="M14 683v43l185 11v-495l135 130q23 23 23 39q0 19 -47 19h-31v36h263v-36q-51 -6 -88.5 -25t-80.5 -62l-45 -44l142 -194q31 -39 53 -52t64 -17v-36h-264v36h19q44 0 44 17q0 6 -7 18l-119 167l-61 -58v-97q0 -32 9.5 -39.5t56.5 -7.5h14v-36h-253v36h14q46 0 55.5 7.5 t9.5 39.5v550q0 32 -7.5 41t-35.5 9h-48z" />
<glyph unicode="l" horiz-adv-x="315" d="M19 683v43l185 11v-654q0 -32 9.5 -39.5t56.5 -7.5h17v-36h-259v36h17q46 0 55.5 7.5t9.5 39.5v550q0 32 -7.5 41t-34.5 9h-49z" />
<glyph unicode="m" horiz-adv-x="889" d="M23 412v43l178 11v-77q57 92 144 92q50 0 87.5 -27.5t50.5 -72.5q62 100 156 100q73 0 118 -57q20 -26 26 -48.5t6 -68.5v-223q0 -32 9.5 -40t55.5 -8h14v-36h-253v36h14q47 0 56.5 7.5t9.5 39.5v204q0 54 -12 83q-21 50 -73 50q-53 0 -84 -44.5t-31 -119.5v-173 q0 -32 9.5 -39.5t55.5 -7.5h14v-36h-253v36h14q47 0 56.5 7.5t9.5 39.5v215q0 62 -20 89q-9 14 -28 23.5t-38 9.5q-49 0 -81.5 -44t-32.5 -111v-181q0 -32 9.5 -40t55.5 -8h14v-36h-252v36h14q46 0 55.5 8t9.5 40v278q0 32 -7.5 41t-35.5 9h-41z" />
<glyph unicode="n" horiz-adv-x="611" d="M27 0v36h14q46 0 55.5 7.5t9.5 39.5v279q0 32 -7.5 41t-35.5 9h-36v43l173 11v-81q64 96 158 96q44 0 80 -20.5t55 -56.5q13 -25 17 -47.5t4 -76.5v-197q0 -32 9.5 -39.5t55.5 -7.5h14v-36h-253v36h14q47 0 56.5 7.5t9.5 39.5v202q0 69 -22 100q-11 15 -31.5 25t-39.5 10 q-32 0 -62.5 -21t-46.5 -55q-18 -38 -18 -117v-144q0 -32 9.5 -39.5t56.5 -7.5h14v-36h-253z" />
<glyph unicode="o" horiz-adv-x="500" d="M34 232q0 105 63 177t155 72q89 0 151.5 -72.5t62.5 -175.5t-63 -175.5t-153 -72.5t-153 72t-63 175zM139 232q0 -99 28.5 -151.5t82.5 -52.5t82.5 52.5t28.5 152.5q0 99 -28 152t-81 53q-113 0 -113 -206z" />
<glyph unicode="p" horiz-adv-x="574" d="M28 -166h14q46 0 55.5 7.5t9.5 39.5v481q0 32 -7.5 41t-35.5 9h-36v43l173 11v-71q50 86 138 86q82 0 139 -71t57 -175q0 -107 -57.5 -178.5t-144.5 -71.5q-46 0 -76.5 19t-55.5 62v-185q0 -30 12.5 -38.5t60.5 -8.5h14v-36h-260v36zM200 228q0 -86 32.5 -137.5 t85.5 -51.5t82.5 52.5t29.5 149.5q0 88 -28.5 137t-80.5 49q-57 0 -89 -53t-32 -146z" />
<glyph unicode="q" d="M36 222q0 111 61 185t153 74q93 0 152 -83l47 68h37q-14 -66 -16 -85l-1 -72v-428q0 -32 9.5 -39.5t55.5 -7.5h14v-36h-260v36h13q48 0 61 8.5t13 38.5v177q-30 -41 -59.5 -57t-76.5 -16q-88 0 -145.5 67t-57.5 170zM141 228q0 -90 30.5 -139.5t86.5 -49.5q117 0 117 205 q0 80 -21 126q-14 32 -39.5 50t-55.5 18q-118 0 -118 -210z" />
<glyph unicode="r" horiz-adv-x="444" d="M21 412v43l177 11v-124q24 66 63.5 102.5t86.5 36.5q40 0 63.5 -22t23.5 -58q0 -31 -17 -49.5t-44 -18.5q-24 0 -39.5 15.5t-15.5 39.5t18 45q-36 -4 -64 -34t-43.5 -75t-23.5 -93.5t-8 -97.5v-50q0 -30 13.5 -38.5t61.5 -8.5h19v-36h-267v36h14q47 0 56.5 7.5t9.5 39.5 v279q0 32 -7.5 41t-35.5 9h-41z" />
<glyph unicode="s" horiz-adv-x="463" d="M51 -7v189h40q18 -75 61.5 -114.5t106.5 -39.5q44 0 72 22.5t28 57.5q0 30 -23.5 47.5t-83.5 31.5l-53 12q-76 18 -106 45q-35 32 -35 92q0 65 40 105t106 40q71 0 122 -40l29 36h35v-168h-35q-21 60 -49 88q-41 40 -97 40q-41 0 -67 -19.5t-26 -49.5q0 -37 35 -53 q18 -10 73 -22l50 -11q46 -10 66.5 -18t38.5 -24q42 -35 42 -101q0 -70 -44.5 -112t-118.5 -42q-76 0 -137 49l-35 -41h-35z" />
<glyph unicode="t" horiz-adv-x="389" d="M18 423v39q120 9 135 202h41v-198h147v-43h-147v-273q0 -60 12.5 -82t46.5 -22q73 0 78 136h42q1 -10 1 -23q0 -75 -38.5 -124.5t-109.5 -49.5q-88 0 -114 65q-12 28 -12 118v255h-82z" />
<glyph unicode="u" horiz-adv-x="611" d="M21 412v43l175 11v-305q0 -41 2.5 -55.5t12.5 -28.5q20 -31 70 -31q77 0 110 70q21 46 21 123v123q0 32 -7.5 41t-35.5 9h-51v43l188 11v-350q0 -48 11 -60.5t52 -12.5h25v-43l-182 -7v83q-33 -48 -70 -69.5t-86 -21.5q-93 0 -135 64q-19 29 -19 97v216q0 32 -7.5 41 t-35.5 9h-38z" />
<glyph unicode="v" horiz-adv-x="537" d="M8 430v36h236v-36h-14q-31 0 -42.5 -5t-11.5 -18q0 -11 5 -21l114 -265l92 232q7 17 9 42q0 35 -54 35h-14v36h200v-36h-14q-27 0 -44 -20.5t-39 -73.5l-142 -351h-35l-172 402q-12 27 -22.5 35t-37.5 8h-14z" />
<glyph unicode="w" horiz-adv-x="778" d="M15 430v36h220v-36h-18q-41 0 -41 -23q0 -8 4 -22l97 -251l88 233l-9 26q-8 22 -18 29.5t-34 7.5h-17v36h224v-36h-24q-25 0 -33.5 -4.5t-8.5 -18.5q0 -12 4 -21l98 -257l85 228q8 24 8 37q0 36 -49 36h-17v36h189v-36h-13q-25 0 -38 -15t-30 -61l-140 -369h-31l-122 316 l-119 -316h-35l-150 396q-10 30 -20.5 39.5t-31.5 9.5h-18z" />
<glyph unicode="x" horiz-adv-x="537" d="M9 0v36h16q36 0 80 52l115 134l-122 154q-25 32 -40 42t-43 12v36h237v-36h-16q-42 0 -42 -18q0 -10 10 -22l77 -98l63 75q20 25 20 41q0 22 -45 22h-19v36h207v-36h-15q-33 0 -69 -42l-114 -133l126 -170q20 -27 37.5 -38t42.5 -11h14v-36h-252v36h13q28 0 37.5 4 t9.5 14q0 11 -13 30l-76 101l-84 -101q-8 -8 -8 -21q0 -14 9.5 -20.5t39.5 -6.5h15v-36h-211z" />
<glyph unicode="y" horiz-adv-x="537" d="M3 -129q0 27 17 44.5t43 17.5q22 0 36.5 -13t14.5 -32q0 -6 -3.5 -19t-3.5 -16q0 -10 16 -10q24 0 55.5 35.5t59.5 93.5l17 35l-163 369q-14 30 -28 42t-38 12h-13v36h238v-36h-21q-46 0 -46 -25q0 -7 6 -21l110 -257l91 226q10 24 10 40q0 37 -54 37h-16v36h200v-36h-12 q-28 0 -43.5 -17t-34.5 -64l-114 -282q-58 -143 -95 -193q-59 -80 -138 -80q-39 0 -65 22t-26 55z" />
<glyph unicode="z" horiz-adv-x="481" d="M39 0v36l273 387h-87q-61 0 -90.5 -29t-36.5 -97h-40l9 169h361v-36l-273 -387h102q68 0 99.5 31t38.5 105h40l-7 -179h-389z" />
<glyph unicode="{" horiz-adv-x="333" d="M66 291v32q22 7 28.5 9.5t19 9.5t15 13.5t7.5 21t5.5 32.5t0.5 47v116q0 86 29.5 118t99.5 32h26v-34q-49 -3 -65 -28.5t-16 -97.5v-130q0 -51 -13 -75.5t-54 -49.5q41 -25 54 -49.5t13 -75.5v-130q0 -72 16 -97.5t65 -28.5v-34h-26q-70 0 -99.5 32t-29.5 118v116 q0 76 -11.5 96t-54.5 34q-6 2 -10 3z" />
<glyph unicode="|" horiz-adv-x="606" d="M263 -108v830h80v-830h-80z" />
<glyph unicode="}" horiz-adv-x="333" d="M36 -74q48 3 64 28.5t16 97.5v130q0 51 13 75.5t54 49.5q-41 25 -54 49.5t-13 75.5v130q0 72 -16 97.5t-64 28.5v34h25q69 0 99 -31.5t30 -118.5v-116q0 -43 2 -64.5t13.5 -36t21.5 -18.5t40 -14v-32q-23 -7 -29 -9.5t-19 -9.5t-15.5 -13.5t-7.5 -21t-5.5 -32.5t-0.5 -47 v-116q0 -87 -30 -118.5t-99 -31.5h-25v34z" />
<glyph unicode="~" horiz-adv-x="606" d="M51 220q28 49 66 78t74 29q32 0 99 -32l46 -22q41 -20 53 -24.5t27 -3.5q43 0 86 65l53 -38q-28 -49 -66 -78t-74 -29q-37 0 -99 31l-46 23q-54 27 -80 28q-43 0 -86 -65z" />
<glyph unicode="&#xa1;" horiz-adv-x="296" d="M84 417q0 26 18.5 44.5t44.5 18.5t44 -18.5t18 -44.5t-18.5 -44t-44.5 -18t-44 18.5t-18 43.5zM85 -175q0 40 18 130q14 71 18.5 130t5.5 190h39q2 -136 6 -193t18 -127q18 -90 18 -131q0 -94 -62 -94q-61 0 -61 95z" />
<glyph unicode="&#xa2;" d="M71 224q0 113 66 185t170 72q42 0 78 -13l46 117h43l-53 -135q21 -15 35 -40.5t14 -49.5q0 -26 -19.5 -45.5t-45.5 -19.5q-21 0 -39 15l-99 -254q25 -8 45 -8q89 0 128 99l39 -14q-50 -148 -186 -148q-23 0 -52 6l-52 -132h-43l57 145q-62 27 -97 85t-35 135zM175 240 q0 -116 56 -164l136 345q-19 17 -56 17q-64 0 -100 -52.5t-36 -145.5z" />
<glyph unicode="&#xa3;" d="M17 65q0 38 26 62t68 24q32 0 85 -23q7 28 7 44q0 59 -33 153h-134v47h120q-25 89 -25 134q0 88 54.5 143t143.5 55q77 0 127 -40.5t50 -101.5q0 -37 -20 -60.5t-52 -23.5q-26 0 -43 16.5t-17 42.5q0 21 10 33t37 26q15 7 15 17q0 18 -29 33t-63 15q-53 0 -83.5 -31.5 t-30.5 -86.5q0 -33 33 -171h169v-47h-160q10 -49 10 -87q0 -78 -27 -132q71 -34 121 -34q49 0 77 20t49 70l35 -15q-17 -79 -60 -120.5t-106 -41.5q-72 0 -153 59q-55 -59 -114 -59q-38 0 -62.5 22.5t-24.5 57.5zM58 68q0 -18 14.5 -30.5t34.5 -12.5q42 0 71 50 q-45 35 -77 35q-17 0 -30 -12.5t-13 -29.5z" />
<glyph unicode="&#xa4;" d="M26 144l53 53q-52 70 -52 151q0 83 50 147l-51 50l51 52l51 -51q67 50 147 50q81 0 151 -52l53 53l51 -52l-53 -52q52 -67 52 -151q0 -82 -50 -147l51 -51l-51 -51l-51 51q-65 -50 -147 -50q-83 0 -151 52l-53 -53zM109 345q0 -69 49.5 -119t117.5 -50q72 0 121.5 49 t49.5 120q0 70 -49.5 119.5t-119.5 49.5t-119.5 -49.5t-49.5 -119.5z" />
<glyph unicode="&#xa5;" d="M-1 675v47h233v-47h-24q-28 0 -28 -19q0 -12 8 -28l125 -271l91 221q13 32 12 53q0 44 -46 44h-17v47h204v-47h-14q-32 0 -46.5 -19t-43.5 -88l-97 -236h101v-47h-115v-86h115v-47h-115v-29q0 -54 5 -62q8 -14 63 -14h19v-47h-285v47h19q46 0 56.5 8t10.5 40v57h-116v47 h116v86h-116v47h95l-137 297q-14 30 -22.5 38t-30.5 8h-20z" />
<glyph unicode="&#xa6;" horiz-adv-x="606" d="M263 -108v332h80v-332h-80zM263 390v332h80v-332h-80z" />
<glyph unicode="&#xa7;" horiz-adv-x="500" d="M58 315q0 55 36 93t89 38h17q-59 57 -77 85.5t-18 72.5q0 58 41.5 95t105.5 37q58 0 100 -33t42 -77q0 -23 -16 -39t-39 -16q-24 0 -39.5 14t-15.5 35q0 15 17.5 35t17.5 21q0 10 -19.5 18.5t-43.5 8.5q-35 0 -58.5 -20t-23.5 -50q0 -38 68 -95l110 -92q96 -83 96 -164 q0 -59 -37 -99.5t-90 -40.5q-10 0 -18 1q57 -46 80 -80t23 -79q0 -56 -43 -94t-108 -38q-58 0 -100.5 33t-42.5 78q0 23 16 39t39 16q24 0 39.5 -14t15.5 -36q0 -25 -27 -45q-8 -6 -8 -11q0 -10 20 -18.5t43 -8.5q38 0 62.5 19.5t24.5 49.5q0 26 -18 50t-73 69l-78 64 q-60 50 -85 90t-25 88zM124 346q0 -28 14.5 -50.5t56.5 -60.5q73 -67 119 -67q27 0 47.5 21.5t20.5 50.5q0 58 -93 135q-55 44 -93 44q-31 0 -51.5 -21t-20.5 -52z" />
<glyph unicode="&#xa8;" horiz-adv-x="333" d="M17 610q0 20 15 35t35 15t35 -15t15 -35q0 -21 -15 -35.5t-36 -14.5q-20 0 -34.5 15t-14.5 35zM216 610q0 20 15 35t35 15t35 -15t15 -35q0 -21 -15 -35.5t-36 -14.5q-20 0 -34.5 15t-14.5 35z" />
<glyph unicode="&#xa9;" horiz-adv-x="737" d="M21 334q0 144 102 246.5t246 102.5t246.5 -102.5t102.5 -246.5t-102.5 -246t-246.5 -102t-246 102t-102 246zM65 334q0 -126 89 -215t215 -89t215.5 89t89.5 215t-89.5 215.5t-215.5 89.5t-215 -89.5t-89 -215.5zM188 330q0 82 58.5 141t139.5 59q49 0 100 -33l22 29h34 v-154h-30q-18 56 -32 78q-32 51 -95 51q-111 0 -111 -173q0 -162 118 -162q104 0 126 116l32 -5q-10 -67 -52.5 -103.5t-112.5 -36.5q-86 0 -141.5 54t-55.5 139z" />
<glyph unicode="&#xaa;" horiz-adv-x="334" d="M5 503q0 44 45 69t159 43v24q0 35 -17 50t-54 15q-23 0 -40 -6.5t-17 -16.5q0 -1 7 -14t7 -18q0 -13 -10 -22t-25 -9q-17 0 -27.5 10t-10.5 27q0 32 36 53.5t91 21.5q60 0 90.5 -20t30.5 -75v-121q0 -41 24 -41q1 0 12 3.5t16 3.5q7 0 7 -7q0 -13 -19 -24t-41 -11 q-42 0 -56 42q-45 -47 -114 -47q-43 0 -68.5 19t-25.5 51zM23 329v40h260v-40h-260zM71 511q0 -20 14.5 -33.5t36.5 -13.5q38 0 62.5 23.5t24.5 74.5v28q-80 -13 -109 -29.5t-29 -49.5z" />
<glyph unicode="&#xab;" horiz-adv-x="426" d="M38 243l148 144q16 15 23 15q11 0 11 -12q1 -6 -44 -72l-51 -75q95 -135 95 -147q0 -11 -12 -11q-6 -1 -22 15q-109 106 -128 124q-13 13 -20 19zM205 243l110 106q57 51 62 53q11 0 11 -12q0 -3 -7 -15t-17.5 -27.5t-23 -34t-23 -33.5t-17.5 -26l-8 -11q95 -135 95 -147 q0 -11 -12 -11q-6 -1 -22 15q-109 106 -128 124q-13 13 -20 19z" />
<glyph unicode="&#xac;" horiz-adv-x="606" d="M40 300v80h526v-220h-80v140h-446z" />
<glyph unicode="&#xad;" horiz-adv-x="333" d="M42 195v83h249v-83h-249z" />
<glyph unicode="&#xae;" horiz-adv-x="737" d="M21 334q0 144 102 246.5t246 102.5t246.5 -102.5t102.5 -246.5t-102.5 -246t-246.5 -102t-246 102t-102 246zM65 334q0 -126 89 -215t215 -89t215.5 89t89.5 215t-89.5 215.5t-215.5 89.5t-215 -89.5t-89 -215.5zM170 149v29h11q30 0 38 4t8 18v276q0 14 -7.5 17.5 t-38.5 3.5h-11v30h198q74 0 114.5 -24.5t40.5 -70.5q0 -75 -113 -93q29 -9 45.5 -27t25.5 -52l9 -32q7 -27 11 -35t12 -8q19 0 22 51h32q-1 -95 -76 -95q-36 0 -55 19.5t-23 65.5l-3 26q-5 42 -24.5 60t-56.5 18h-27v-130q0 -14 7.5 -18t37.5 -4h12v-29h-189zM302 359h57 q83 0 83 72q0 66 -76 66h-31q-23 0 -28 -2t-5 -12v-124z" />
<glyph unicode="&#xaf;" horiz-adv-x="333" d="M10 583v54h313v-54h-313z" />
<glyph unicode="&#xb0;" horiz-adv-x="400" d="M50 534q0 64 44.5 108t108.5 44q62 0 104.5 -44t42.5 -109q0 -64 -43.5 -108.5t-106.5 -44.5t-106.5 44.5t-43.5 109.5zM106 533q0 -40 28 -68t66 -28q39 0 66 28t27 68t-26.5 68t-64.5 28q-40 0 -68 -28t-28 -68z" />
<glyph unicode="&#xb1;" horiz-adv-x="606" d="M40 0v80h526v-80h-526zM40 290v80h223v223h80v-223h223v-80h-223v-138h-80v138h-223z" />
<glyph unicode="&#xb2;" horiz-adv-x="333" d="M13 289v22q10 12 22 27q22 27 95 100l32 32q74 73 74 133q0 36 -21 56t-59 20q-33 0 -58.5 -17.5t-25.5 -39.5q0 -3 12 -8.5t24 -16.5t12 -27q0 -17 -12 -28t-31 -11q-24 0 -39 18.5t-15 47.5q0 49 42 82t104 33q63 0 104 -33.5t41 -85.5q0 -43 -25 -75t-102 -88 q-47 -35 -93 -78h136q27 0 34.5 6.5t13.5 32.5l7 33h34l-12 -135h-294z" />
<glyph unicode="&#xb3;" horiz-adv-x="333" d="M18 381q0 25 13.5 40.5t35.5 15.5q18 0 30.5 -12t12.5 -29q0 -14 -6.5 -22.5t-26.5 -19.5l-5 -6q0 -12 26 -23.5t53 -11.5q41 0 63 24t22 68q0 86 -69 86h-7.5t-15 -0.5t-22.5 -0.5q-22 0 -22 19t24 19q9 0 14 -1l24 -1q67 -3 67 80q0 73 -66 73q-24 0 -46.5 -10 t-22.5 -20q0 -3 13.5 -17t13.5 -24q0 -17 -11.5 -28t-29.5 -11q-20 0 -32.5 12.5t-12.5 32.5q0 42 38.5 70t95.5 28q61 0 97 -28.5t36 -76.5q0 -34 -19 -56t-57 -41q88 -24 88 -107q0 -55 -43 -89t-113 -34q-61 0 -100.5 28.5t-39.5 72.5z" />
<glyph unicode="&#xb4;" horiz-adv-x="333" d="M91 524l140 140q31 31 50 31q14 0 24.5 -10.5t10.5 -24.5q0 -24 -25 -39l-159 -97h-41z" />
<glyph unicode="&#xb5;" horiz-adv-x="611" d="M21 412v43l175 11v-305q0 -41 2.5 -55.5t12.5 -28.5q20 -31 70 -31q77 0 110 70q21 46 21 123v123q0 32 -7.5 41t-35.5 9h-51v43l188 11v-350q0 -48 11 -60.5t52 -12.5h25v-43l-182 -7v83q-61 -91 -154 -91q-73 0 -117 54q0 -51 12 -92q19 -68 19 -92q0 -33 -13.5 -53.5 t-35.5 -20.5t-36 20.5t-14 51.5q0 26 17 91q12 43 12 76v342q0 32 -7.5 41t-35.5 9h-38z" />
<glyph unicode="&#xb6;" horiz-adv-x="606" d="M49 523q0 94 44.5 146.5t128.5 52.5h335v-36q-44 -2 -54.5 -10t-10.5 -37v-660q0 -49 1 -58t6 -15q8 -11 58 -14v-36h-359v36h4q57 0 69 14q5 6 5.5 15t0.5 58v345h-30q-97 0 -147.5 51t-50.5 148zM185 481q0 -124 80 -124h12v329q-52 0 -72 -27t-20 -96v-82zM342 -107 h85v793h-85v-793z" />
<glyph unicode="&#xb7;" horiz-adv-x="278" d="M77 250q0 26 18.5 44t43.5 18t43.5 -18t18.5 -44t-18.5 -44t-43.5 -18t-43.5 18t-18.5 44z" />
<glyph unicode="&#xb8;" horiz-adv-x="333" d="M29 -198l14 33q36 -12 61 -12q26 0 41.5 11t15.5 29q0 17 -13 28t-34 11q-14 0 -34 -5l-9 5l44 103h35l-24 -68q21 3 29 3q37 0 59.5 -19t22.5 -49q0 -38 -33.5 -62.5t-86.5 -24.5q-45 0 -88 17z" />
<glyph unicode="&#xb9;" horiz-adv-x="333" d="M39 289v35h43q43 0 50 7q3 3 3 34v237q0 25 -5 29.5t-31 4.5h-59v33q45 0 84.5 12t56.5 31h28q-5 -57 -5 -102v-245q0 -30 3 -34q7 -7 49 -7h38v-35h-255z" />
<glyph unicode="&#xba;" horiz-adv-x="300" d="M10 581q0 63 40.5 106t101.5 43q59 0 99 -44t40 -108q0 -65 -39.5 -105t-103.5 -40q-61 0 -99.5 41.5t-38.5 106.5zM21 329v40h260v-40h-260zM78 579q0 -120 72 -120q73 0 73 128q0 117 -71 117q-74 0 -74 -125z" />
<glyph unicode="&#xbb;" horiz-adv-x="426" d="M39 96q0 8 16.5 34t78.5 113q-62 89 -78.5 114.5t-16.5 32.5q0 4 4 8t8 4q8 0 22 -15q43 -43 148 -144q-67 -64 -109 -105l-39 -38q-14 -15 -23 -15q-11 0 -11 11zM206 96q0 8 16.5 34t78.5 113q-62 89 -78.5 114.5t-16.5 32.5q0 4 4 8t8 4q8 0 22 -15q43 -43 148 -144 q-67 -64 -109 -105l-39 -38q-14 -15 -23 -15q-4 0 -7.5 3.5t-3.5 7.5z" />
<glyph unicode="&#xbc;" horiz-adv-x="834" d="M39 289v35h43q38 0 45.5 5.5t7.5 35.5v237q0 25 -5 29.5t-31 4.5h-59v33q45 0 84.5 12t56.5 31h28q-5 -57 -5 -102v-245q0 -30 7 -35.5t45 -5.5h38v-35h-255zM155 0l502 708h54l-502 -708h-54zM473 103v37l216 283h32q-3 -50 -3 -122v-158h77v-40h-77v-44q0 -17 7.5 -20 t51.5 -4v-35h-191v35h11q37 0 45 3.5t8 20.5v44h-177zM523 143h127v165z" />
<glyph unicode="&#xbd;" horiz-adv-x="834" d="M39 289v35h43q38 0 45.5 5.5t7.5 35.5v237q0 25 -5 29.5t-31 4.5h-59v33q45 0 84.5 12t56.5 31h28q-5 -57 -5 -102v-245q0 -30 7 -35.5t45 -5.5h38v-35h-255zM149 0l502 708h54l-502 -708h-54zM515 0v22q61 76 112 123q60 55 85.5 93t25.5 76q0 36 -21 56t-59 20 q-33 0 -58.5 -17.5t-25.5 -39.5q0 -1 24 -16t24 -36q0 -17 -12 -28t-31 -11q-24 0 -39 18.5t-15 47.5q0 49 42 82t104 33q63 0 104 -33.5t41 -85.5q0 -43 -25 -75t-102 -88q-46 -33 -93 -78h136q27 0 34.5 6.5t13.5 32.5l7 33h34l-12 -135h-294z" />
<glyph unicode="&#xbe;" horiz-adv-x="834" d="M28 381q0 25 13.5 40.5t35.5 15.5q18 0 30.5 -12t12.5 -29q0 -14 -6.5 -22.5t-26.5 -19.5l-5 -6q0 -12 26 -23.5t53 -11.5q41 0 63 24t22 68q0 86 -69 86h-7.5t-15 -0.5t-22.5 -0.5q-22 0 -22 19t24 19q9 0 14 -1l24 -1q67 -3 67 80q0 73 -66 73q-24 0 -46.5 -10 t-22.5 -20q0 -3 13.5 -17t13.5 -24q0 -17 -11.5 -28t-29.5 -11q-20 0 -32.5 12.5t-12.5 32.5q0 42 38.5 70t95.5 28q61 0 97 -28.5t36 -76.5q0 -34 -19 -56t-57 -41q88 -24 88 -107q0 -55 -43 -89t-113 -34q-61 0 -100.5 28.5t-39.5 72.5zM165 0l502 708h54l-502 -708h-54z M473 103v37l216 283h32q-3 -50 -3 -122v-158h77v-40h-77v-44q0 -17 7.5 -20t51.5 -4v-35h-191v35h11q37 0 45 3.5t8 20.5v44h-177zM523 143h127v165z" />
<glyph unicode="&#xbf;" horiz-adv-x="444" d="M33 -96q0 52 23.5 89.5t96.5 101.5q48 42 61 74t13 106h44v-32q0 -62 -14 -101q-2 -7 -4 -12t-4 -9.5t-5.5 -10.5t-6.5 -10.5t-10.5 -15t-13.5 -19t-19 -26.5t-24 -33q-32 -45 -32 -108q0 -58 29.5 -90.5t82.5 -32.5q36 0 64 15t28 35q0 3 -22.5 29.5t-22.5 45.5 q0 23 16.5 39t40.5 16q28 0 46.5 -22t18.5 -55q0 -64 -55 -106t-140 -42q-86 0 -138.5 48t-52.5 126zM189 418q0 26 18.5 44.5t44.5 18.5t44 -18.5t18 -44.5t-18.5 -44t-44.5 -18q-25 0 -43.5 18t-18.5 44z" />
<glyph unicode="&#xc0;" horiz-adv-x="722" d="M-8 0v47h14q37 0 55 19t45 87l230 583h42l255 -625q18 -43 30 -53.5t49 -10.5h19v-47h-310v47h42q62 0 62 26q0 7 -8 27l-54 134h-265l-33 -88q-9 -24 -9 -42q0 -57 81 -57h20v-47h-265zM189 892q0 13 12.5 22t29.5 9q23 0 60 -28l168 -126h-49l-191 88q-30 15 -30 35z M218 288h224l-113 284z" />
<glyph unicode="&#xc1;" horiz-adv-x="722" d="M-8 0v47h14q37 0 55 19t45 87l230 583h42l255 -625q18 -43 30 -53.5t49 -10.5h19v-47h-310v47h42q62 0 62 26q0 7 -8 27l-54 134h-265l-33 -88q-9 -24 -9 -42q0 -57 81 -57h20v-47h-265zM218 288h224l-113 284zM255 769l168 126q37 28 60 28q17 0 29.5 -9t12.5 -22 q0 -20 -30 -35l-191 -88h-49z" />
<glyph unicode="&#xc2;" horiz-adv-x="722" d="M-8 0v47h14q37 0 55 19t45 87l230 583h42l255 -625q18 -43 30 -53.5t49 -10.5h19v-47h-310v47h42q62 0 62 26q0 7 -8 27l-54 134h-265l-33 -88q-9 -24 -9 -42q0 -57 81 -57h20v-47h-265zM169 771l150 150h76l150 -150h-44l-144 91l-145 -91h-43zM218 288h224l-113 284z " />
<glyph unicode="&#xc3;" horiz-adv-x="722" d="M-8 0v47h14q37 0 55 19t45 87l230 583h42l255 -625q18 -43 30 -53.5t49 -10.5h19v-47h-310v47h42q62 0 62 26q0 7 -8 27l-54 134h-265l-33 -88q-9 -24 -9 -42q0 -57 81 -57h20v-47h-265zM192 793q10 47 36.5 74t63.5 27q27 0 86 -27q43 -19 59 -19q17 0 32 14.5t19 36.5 h35q-5 -47 -35 -76.5t-73 -29.5q-19 0 -34.5 5t-54.5 23q-30 14 -52 14q-36 0 -47 -42h-35zM218 288h224l-113 284z" />
<glyph unicode="&#xc4;" horiz-adv-x="722" d="M-8 0v47h14q37 0 55 19t45 87l230 583h42l255 -625q18 -43 30 -53.5t49 -10.5h19v-47h-310v47h42q62 0 62 26q0 7 -8 27l-54 134h-265l-33 -88q-9 -24 -9 -42q0 -57 81 -57h20v-47h-265zM208 846q0 20 15 35t35 15t35 -15t15 -35q0 -21 -15 -35.5t-36 -14.5 q-20 0 -34.5 15t-14.5 35zM218 288h224l-113 284zM407 846q0 20 15 35t35 15t35 -15t15 -35q0 -21 -15 -35.5t-36 -14.5q-20 0 -34.5 15t-14.5 35z" />
<glyph unicode="&#xc5;" horiz-adv-x="722" d="M-8 0v47h14q37 0 55 19t45 87l230 583h42l255 -625q18 -43 30 -53.5t49 -10.5h19v-47h-310v47h42q62 0 62 26q0 7 -8 27l-54 134h-265l-33 -88q-9 -24 -9 -42q0 -57 81 -57h20v-47h-265zM218 288h224l-113 284zM258 862q0 40 29 69.5t70 29.5t70.5 -29t29.5 -70 q0 -42 -29.5 -71t-71.5 -29q-40 0 -69 29.5t-29 70.5zM294 862q0 -26 18.5 -45t44.5 -19q27 0 45.5 18.5t18.5 45.5q0 26 -18.5 44.5t-44.5 18.5t-45 -18.5t-19 -44.5z" />
<glyph unicode="&#xc6;" horiz-adv-x="1000" d="M0 0v47q26 5 45.5 23t43.5 62l247 444q13 24 13 45q0 31 -16 42.5t-66 11.5h-27v47h693l14 -256h-43q-15 91 -39.5 134t-68 59t-129.5 16h-24q-41 0 -52 -9t-11 -41v-228h28q61 0 91 32t34 105h47v-328h-47q-2 78 -27 111t-102 33h-24v-255q0 -30 15.5 -39t56.5 -9h35 q115 0 161 46.5t72 173.5h43l-20 -267h-584v47h19q61 0 75.5 7.5t14.5 39.5v175h-239l-71 -130q-14 -25 -14 -46q0 -24 15.5 -35t53.5 -11h20v-47h-233zM258 323h210v325q0 15 -2 19t-8 4q-8 0 -17 -18z" />
<glyph unicode="&#xc7;" horiz-adv-x="722" d="M45 354q0 157 100.5 270t238.5 113q50 0 87 -14t90 -53l40 59h53v-289h-44q-31 104 -57 149q-29 48 -73.5 74.5t-96.5 26.5q-103 0 -154.5 -87t-51.5 -253q0 -161 53.5 -239.5t164.5 -78.5q184 0 226 223l47 -8q-17 -125 -90.5 -193.5t-190.5 -68.5q-21 0 -41 2l-19 -51 q22 3 30 3q36 0 58.5 -19t22.5 -49q0 -38 -33.5 -62.5t-87.5 -24.5q-47 0 -87 17l14 33q36 -12 62 -12q25 0 40.5 11t15.5 29q0 17 -13 28t-34 11q-15 0 -34 -6l-8 5l39 92q-119 20 -193 123.5t-74 238.5z" />
<glyph unicode="&#xc8;" horiz-adv-x="722" d="M29 0v47h18q61 0 75.5 7.5t14.5 39.5v534q0 32 -14.5 39.5t-75.5 7.5h-18v47h615v-256h-43q-11 68 -25.5 107t-42 63t-66 31.5t-103.5 7.5h-52q-41 0 -52 -9t-11 -41v-228h24q71 0 103.5 32t36.5 105h47v-328h-47q-2 78 -29.5 111t-114.5 33h-20v-255q0 -30 15.5 -39 t56.5 -9h66q114 0 161 46.5t71 173.5h44l-20 -267h-614zM193 892q0 13 12.5 22t29.5 9q23 0 60 -28l168 -126h-49l-191 88q-30 15 -30 35z" />
<glyph unicode="&#xc9;" horiz-adv-x="722" d="M29 0v47h18q61 0 75.5 7.5t14.5 39.5v534q0 32 -14.5 39.5t-75.5 7.5h-18v47h615v-256h-43q-11 68 -25.5 107t-42 63t-66 31.5t-103.5 7.5h-52q-41 0 -52 -9t-11 -41v-228h24q71 0 103.5 32t36.5 105h47v-328h-47q-2 78 -29.5 111t-114.5 33h-20v-255q0 -30 15.5 -39 t56.5 -9h66q114 0 161 46.5t71 173.5h44l-20 -267h-614zM259 769l168 126q37 28 60 28q17 0 29.5 -9t12.5 -22q0 -20 -30 -35l-191 -88h-49z" />
<glyph unicode="&#xca;" horiz-adv-x="722" d="M29 0v47h18q61 0 75.5 7.5t14.5 39.5v534q0 32 -14.5 39.5t-75.5 7.5h-18v47h615v-256h-43q-11 68 -25.5 107t-42 63t-66 31.5t-103.5 7.5h-52q-41 0 -52 -9t-11 -41v-228h24q71 0 103.5 32t36.5 105h47v-328h-47q-2 78 -29.5 111t-114.5 33h-20v-255q0 -30 15.5 -39 t56.5 -9h66q114 0 161 46.5t71 173.5h44l-20 -267h-614zM173 771l150 150h76l150 -150h-44l-144 91l-145 -91h-43z" />
<glyph unicode="&#xcb;" horiz-adv-x="722" d="M29 0v47h18q61 0 75.5 7.5t14.5 39.5v534q0 32 -14.5 39.5t-75.5 7.5h-18v47h615v-256h-43q-11 68 -25.5 107t-42 63t-66 31.5t-103.5 7.5h-52q-41 0 -52 -9t-11 -41v-228h24q71 0 103.5 32t36.5 105h47v-328h-47q-2 78 -29.5 111t-114.5 33h-20v-255q0 -30 15.5 -39 t56.5 -9h66q114 0 161 46.5t71 173.5h44l-20 -267h-614zM212 846q0 20 15 35t35 15t35 -15t15 -35q0 -21 -15 -35.5t-36 -14.5q-20 0 -34.5 15t-14.5 35zM411 846q0 20 15 35t35 15t35 -15t15 -35q0 -21 -15 -35.5t-36 -14.5q-20 0 -34.5 15t-14.5 35z" />
<glyph unicode="&#xcc;" horiz-adv-x="407" d="M35 892q0 13 12.5 22t29.5 9q23 0 60 -28l168 -126h-49l-191 88q-30 15 -30 35zM38 0v47h20q61 0 75.5 7.5t14.5 39.5v534q0 32 -14.5 39.5t-75.5 7.5h-20v47h331v-47h-20q-60 0 -74.5 -7.5t-14.5 -39.5v-534q0 -32 14.5 -39.5t74.5 -7.5h20v-47h-331z" />
<glyph unicode="&#xcd;" horiz-adv-x="407" d="M38 0v47h20q61 0 75.5 7.5t14.5 39.5v534q0 32 -14.5 39.5t-75.5 7.5h-20v47h331v-47h-20q-60 0 -74.5 -7.5t-14.5 -39.5v-534q0 -32 14.5 -39.5t74.5 -7.5h20v-47h-331zM102 769l168 126q37 28 60 28q17 0 29.5 -9t12.5 -22q0 -20 -30 -35l-191 -88h-49z" />
<glyph unicode="&#xce;" horiz-adv-x="407" d="M16 771l150 150h76l150 -150h-44l-144 91l-145 -91h-43zM38 0v47h20q61 0 75.5 7.5t14.5 39.5v534q0 32 -14.5 39.5t-75.5 7.5h-20v47h331v-47h-20q-60 0 -74.5 -7.5t-14.5 -39.5v-534q0 -32 14.5 -39.5t74.5 -7.5h20v-47h-331z" />
<glyph unicode="&#xcf;" horiz-adv-x="407" d="M38 0v47h20q61 0 75.5 7.5t14.5 39.5v534q0 32 -14.5 39.5t-75.5 7.5h-20v47h331v-47h-20q-60 0 -74.5 -7.5t-14.5 -39.5v-534q0 -32 14.5 -39.5t74.5 -7.5h20v-47h-331zM54 846q0 20 15 35t35 15t35 -15t15 -35q0 -21 -15 -35.5t-36 -14.5q-20 0 -34.5 15t-14.5 35z M253 846q0 20 15 35t35 15t35 -15t15 -35q0 -21 -15 -35.5t-36 -14.5q-20 0 -34.5 15t-14.5 35z" />
<glyph unicode="&#xd0;" horiz-adv-x="778" d="M29 0v47h19q60 0 74.5 7.5t14.5 39.5v256h-108v47h108v231q0 32 -14.5 39.5t-74.5 7.5h-19v47h318q164 0 243 -51q67 -43 104.5 -125t37.5 -185q0 -175 -92.5 -268t-274.5 -93h-336zM249 102q0 -37 9.5 -46t47.5 -9h68q121 0 173.5 72.5t52.5 241.5q0 166 -57 240 t-184 74h-53q-37 0 -47 -9.5t-10 -46.5v-222h180v-47h-180v-248z" />
<glyph unicode="&#xd1;" horiz-adv-x="815" d="M19 675v47h206l399 -531v314q0 103 -22 135t-93 35v47h285v-47q-72 -3 -94 -35t-22 -135v-519h-42l-446 602v-371q0 -103 22 -135t93 -35v-47h-285v47q72 3 94 35t22 135v425q-13 19 -33.5 26t-58.5 7h-25zM242 793q10 47 36.5 74t63.5 27q27 0 86 -27q43 -19 59 -19 q17 0 32 14.5t19 36.5h35q-5 -47 -35 -76.5t-73 -29.5q-19 0 -34.5 5t-54.5 23q-30 14 -52 14q-36 0 -47 -42h-35z" />
<glyph unicode="&#xd2;" horiz-adv-x="778" d="M45 360q0 157 97.5 267t250.5 110q144 0 242 -108.5t98 -267.5q0 -161 -98.5 -268.5t-245.5 -107.5q-146 0 -245 107.5t-99 267.5zM177 363q0 -170 53 -250.5t159 -80.5q212 0 212 329t-209 329q-108 0 -161.5 -79.5t-53.5 -247.5zM221 892q0 13 12.5 22t29.5 9 q23 0 60 -28l168 -126h-49l-191 88q-30 15 -30 35z" />
<glyph unicode="&#xd3;" horiz-adv-x="778" d="M45 360q0 157 97.5 267t250.5 110q144 0 242 -108.5t98 -267.5q0 -161 -98.5 -268.5t-245.5 -107.5q-146 0 -245 107.5t-99 267.5zM177 363q0 -170 53 -250.5t159 -80.5q212 0 212 329t-209 329q-108 0 -161.5 -79.5t-53.5 -247.5zM287 769l168 126q37 28 60 28 q17 0 29.5 -9t12.5 -22q0 -20 -30 -35l-191 -88h-49z" />
<glyph unicode="&#xd4;" horiz-adv-x="778" d="M45 360q0 157 97.5 267t250.5 110q144 0 242 -108.5t98 -267.5q0 -161 -98.5 -268.5t-245.5 -107.5q-146 0 -245 107.5t-99 267.5zM177 363q0 -170 53 -250.5t159 -80.5q212 0 212 329t-209 329q-108 0 -161.5 -79.5t-53.5 -247.5zM201 771l150 150h76l150 -150h-44 l-144 91l-145 -91h-43z" />
<glyph unicode="&#xd5;" horiz-adv-x="778" d="M45 360q0 157 97.5 267t250.5 110q144 0 242 -108.5t98 -267.5q0 -161 -98.5 -268.5t-245.5 -107.5q-146 0 -245 107.5t-99 267.5zM177 363q0 -170 53 -250.5t159 -80.5q212 0 212 329t-209 329q-108 0 -161.5 -79.5t-53.5 -247.5zM224 793q10 47 36.5 74t63.5 27 q27 0 86 -27q43 -19 59 -19q17 0 32 14.5t19 36.5h35q-5 -47 -35 -76.5t-73 -29.5q-19 0 -34.5 5t-54.5 23q-30 14 -52 14q-36 0 -47 -42h-35z" />
<glyph unicode="&#xd6;" horiz-adv-x="778" d="M45 360q0 157 97.5 267t250.5 110q144 0 242 -108.5t98 -267.5q0 -161 -98.5 -268.5t-245.5 -107.5q-146 0 -245 107.5t-99 267.5zM177 363q0 -170 53 -250.5t159 -80.5q212 0 212 329t-209 329q-108 0 -161.5 -79.5t-53.5 -247.5zM240 846q0 20 15 35t35 15t35 -15 t15 -35q0 -21 -15 -35.5t-36 -14.5q-20 0 -34.5 15t-14.5 35zM439 846q0 20 15 35t35 15t35 -15t15 -35q0 -21 -15 -35.5t-36 -14.5q-20 0 -34.5 15t-14.5 35z" />
<glyph unicode="&#xd7;" horiz-adv-x="606" d="M89 92l157 158l-157 158l56 56l158 -157l158 157l56 -56l-157 -158l157 -158l-56 -56l-158 157l-158 -157z" />
<glyph unicode="&#xd8;" horiz-adv-x="778" d="M30 -76l121 164q-50 52 -78.5 125t-28.5 147q0 151 100 264t247 113q105 0 194 -63l65 88h54l-86 -117q54 -54 84.5 -128t30.5 -151q0 -152 -98 -266.5t-248 -114.5q-112 0 -204 73l-99 -134h-54zM176 353q0 -123 30 -190l336 453q-55 74 -154 74q-104 0 -158 -85.5 t-54 -251.5zM229 120q56 -88 161 -88q211 0 211 340q0 130 -35 203z" />
<glyph unicode="&#xd9;" horiz-adv-x="815" d="M17 675v47h327v-47h-19q-61 0 -75.5 -7.5t-14.5 -39.5v-364q0 -113 43 -169t149 -56q110 0 156 64.5t46 180.5v221q0 103 -22 135t-93 35v47h285v-47q-72 -3 -94 -35t-22 -135v-227q0 -154 -71.5 -223.5t-211.5 -69.5q-129 0 -203 53t-74 163v427q0 32 -14.5 39.5 t-74.5 7.5h-17zM239 892q0 13 12.5 22t29.5 9q23 0 60 -28l168 -126h-49l-191 88q-30 15 -30 35z" />
<glyph unicode="&#xda;" horiz-adv-x="815" d="M17 675v47h327v-47h-19q-61 0 -75.5 -7.5t-14.5 -39.5v-364q0 -113 43 -169t149 -56q110 0 156 64.5t46 180.5v221q0 103 -22 135t-93 35v47h285v-47q-72 -3 -94 -35t-22 -135v-227q0 -154 -71.5 -223.5t-211.5 -69.5q-129 0 -203 53t-74 163v427q0 32 -14.5 39.5 t-74.5 7.5h-17zM306 769l168 126q37 28 60 28q17 0 29.5 -9t12.5 -22q0 -20 -30 -35l-191 -88h-49z" />
<glyph unicode="&#xdb;" horiz-adv-x="815" d="M17 675v47h327v-47h-19q-61 0 -75.5 -7.5t-14.5 -39.5v-364q0 -113 43 -169t149 -56q110 0 156 64.5t46 180.5v221q0 103 -22 135t-93 35v47h285v-47q-72 -3 -94 -35t-22 -135v-227q0 -154 -71.5 -223.5t-211.5 -69.5q-129 0 -203 53t-74 163v427q0 32 -14.5 39.5 t-74.5 7.5h-17zM220 771l150 150h76l150 -150h-44l-144 91l-145 -91h-43z" />
<glyph unicode="&#xdc;" horiz-adv-x="815" d="M17 675v47h327v-47h-19q-61 0 -75.5 -7.5t-14.5 -39.5v-364q0 -113 43 -169t149 -56q110 0 156 64.5t46 180.5v221q0 103 -22 135t-93 35v47h285v-47q-72 -3 -94 -35t-22 -135v-227q0 -154 -71.5 -223.5t-211.5 -69.5q-129 0 -203 53t-74 163v427q0 32 -14.5 39.5 t-74.5 7.5h-17zM258 846q0 20 15 35t35 15t35 -15t15 -35q0 -21 -15 -35.5t-36 -14.5q-20 0 -34.5 15t-14.5 35zM457 846q0 20 15 35t35 15t35 -15t15 -35q0 -21 -15 -35.5t-36 -14.5q-20 0 -34.5 15t-14.5 35z" />
<glyph unicode="&#xdd;" horiz-adv-x="704" d="M-13 675v47h321v-47h-59q-39 0 -39 -19q0 -12 11 -28l168 -271l124 221q17 31 17 52q0 24 -18.5 34.5t-59.5 10.5h-23v47h284v-47h-16q-44 0 -69 -21t-61 -86l-149 -269v-205q0 -32 14 -39.5t75 -7.5h26v-47h-343v47h26q61 0 75.5 7.5t14.5 39.5v193l-216 342 q-17 28 -33 37t-48 9h-22zM260 769l168 126q37 28 60 28q17 0 29.5 -9t12.5 -22q0 -20 -30 -35l-191 -88h-49z" />
<glyph unicode="&#xde;" horiz-adv-x="667" d="M28 0v47h20q61 0 75.5 8t14.5 40v533q0 32 -14.5 39.5t-75.5 7.5h-20v47h331v-47h-20q-60 0 -74.5 -7.5t-14.5 -39.5v-54h66q167 0 250 -51.5t83 -143.5q0 -100 -86.5 -151.5t-255.5 -51.5h-57v-82q0 -32 14.5 -39.5t74.5 -7.5h20v-47h-331zM250 221h46q130 0 180 34.5 t50 125.5q0 79 -46 113t-157 34h-22q-35 0 -43 -8t-8 -44v-255z" />
<glyph unicode="&#xdf;" horiz-adv-x="574" d="M29 0v36h14q46 0 55.5 8t9.5 40v409q0 71 8 106t31 66q53 72 159 72q87 0 139 -47.5t52 -126.5q0 -52 -24.5 -87t-81.5 -64q144 -54 144 -218q0 -93 -45.5 -151t-118.5 -58q-55 0 -87 25t-32 67q0 28 15 44.5t40 16.5q23 0 38.5 -15.5t15.5 -37.5q0 -13 -12 -36 q-2 -6 -2 -10q0 -16 19 -16q28 0 46 47.5t18 124.5q0 101 -31.5 147.5t-101.5 51.5q-28 1 -28 20q0 13 8 17.5t29 4.5q51 0 74 29t23 94q0 136 -98 136q-49 0 -76 -36.5t-27 -101.5v-557h-173z" />
<glyph unicode="&#xe0;" d="M44 102q0 74 70 115.5t244 71.5v39q0 62 -27 86t-81 24q-36 0 -62.5 -11.5t-26.5 -27.5q0 -1 11 -22t11 -32q0 -22 -15.5 -36.5t-38.5 -14.5q-26 0 -42 17t-16 45q0 54 55.5 89.5t139.5 35.5q94 0 140 -34t46 -125v-201q0 -38 8.5 -53.5t29.5 -15.5q2 0 18.5 5.5 t24.5 5.5q10 0 10 -12q0 -22 -29 -40t-63 -18q-35 0 -55.5 16.5t-32.5 54.5q-67 -79 -174 -79q-66 0 -105.5 32t-39.5 85zM117 660q0 14 10.5 24.5t24.5 10.5q19 0 50 -31l140 -140h-41l-159 97q-25 15 -25 39zM145 116q0 -34 22.5 -56t56.5 -22q32 0 63.5 17t50.5 45 q13 20 16.5 37.5t3.5 62.5v46q-127 -21 -170 -48.5t-43 -81.5z" />
<glyph unicode="&#xe1;" d="M44 102q0 74 70 115.5t244 71.5v39q0 62 -27 86t-81 24q-36 0 -62.5 -11.5t-26.5 -27.5q0 -1 11 -22t11 -32q0 -22 -15.5 -36.5t-38.5 -14.5q-26 0 -42 17t-16 45q0 54 55.5 89.5t139.5 35.5q94 0 140 -34t46 -125v-201q0 -38 8.5 -53.5t29.5 -15.5q2 0 18.5 5.5 t24.5 5.5q10 0 10 -12q0 -22 -29 -40t-63 -18q-35 0 -55.5 16.5t-32.5 54.5q-67 -79 -174 -79q-66 0 -105.5 32t-39.5 85zM145 116q0 -34 22.5 -56t56.5 -22q32 0 63.5 17t50.5 45q13 20 16.5 37.5t3.5 62.5v46q-127 -21 -170 -48.5t-43 -81.5zM190 524l140 140q31 31 50 31 q14 0 24.5 -10.5t10.5 -24.5q0 -24 -25 -39l-159 -97h-41z" />
<glyph unicode="&#xe2;" d="M44 102q0 74 70 115.5t244 71.5v39q0 62 -27 86t-81 24q-36 0 -62.5 -11.5t-26.5 -27.5q0 -1 11 -22t11 -32q0 -22 -15.5 -36.5t-38.5 -14.5q-26 0 -42 17t-16 45q0 54 55.5 89.5t139.5 35.5q94 0 140 -34t46 -125v-201q0 -38 8.5 -53.5t29.5 -15.5q2 0 18.5 5.5 t24.5 5.5q10 0 10 -12q0 -22 -29 -40t-63 -18q-35 0 -55.5 16.5t-32.5 54.5q-67 -79 -174 -79q-66 0 -105.5 32t-39.5 85zM109 527l125 166h63l125 -166h-36l-120 101l-121 -101h-36zM145 116q0 -34 22.5 -56t56.5 -22q32 0 63.5 17t50.5 45q13 20 16.5 37.5t3.5 62.5v46 q-127 -21 -170 -48.5t-43 -81.5z" />
<glyph unicode="&#xe3;" d="M44 102q0 74 70 115.5t244 71.5v39q0 62 -27 86t-81 24q-36 0 -62.5 -11.5t-26.5 -27.5q0 -1 11 -22t11 -32q0 -22 -15.5 -36.5t-38.5 -14.5q-26 0 -42 17t-16 45q0 54 55.5 89.5t139.5 35.5q94 0 140 -34t46 -125v-201q0 -38 8.5 -53.5t29.5 -15.5q2 0 18.5 5.5 t24.5 5.5q10 0 10 -12q0 -22 -29 -40t-63 -18q-35 0 -55.5 16.5t-32.5 54.5q-67 -79 -174 -79q-66 0 -105.5 32t-39.5 85zM100 557q10 47 36.5 74t63.5 27q27 0 86 -27q43 -19 59 -19q17 0 31.5 14.5t19.5 36.5h35q-5 -47 -35 -76.5t-73 -29.5q-19 0 -34.5 5t-54.5 23 q-30 14 -52 14q-36 0 -47 -42h-35zM145 116q0 -34 22.5 -56t56.5 -22q32 0 63.5 17t50.5 45q13 20 16.5 37.5t3.5 62.5v46q-127 -21 -170 -48.5t-43 -81.5z" />
<glyph unicode="&#xe4;" d="M44 102q0 74 70 115.5t244 71.5v39q0 62 -27 86t-81 24q-36 0 -62.5 -11.5t-26.5 -27.5q0 -1 11 -22t11 -32q0 -22 -15.5 -36.5t-38.5 -14.5q-26 0 -42 17t-16 45q0 54 55.5 89.5t139.5 35.5q94 0 140 -34t46 -125v-201q0 -38 8.5 -53.5t29.5 -15.5q2 0 18.5 5.5 t24.5 5.5q10 0 10 -12q0 -22 -29 -40t-63 -18q-35 0 -55.5 16.5t-32.5 54.5q-67 -79 -174 -79q-66 0 -105.5 32t-39.5 85zM116 610q0 20 15 35t35 15t35 -15t15 -35q0 -21 -15 -35.5t-36 -14.5q-20 0 -34.5 15t-14.5 35zM145 116q0 -34 22.5 -56t56.5 -22q32 0 63.5 17 t50.5 45q13 20 16.5 37.5t3.5 62.5v46q-127 -21 -170 -48.5t-43 -81.5zM315 610q0 20 15 35t35 15t35 -15t15 -35q0 -21 -15 -35.5t-36 -14.5q-20 0 -34.5 15t-14.5 35z" />
<glyph unicode="&#xe5;" d="M44 102q0 74 70 115.5t244 71.5v39q0 62 -27 86t-81 24q-36 0 -62.5 -11.5t-26.5 -27.5q0 -1 11 -22t11 -32q0 -22 -15.5 -36.5t-38.5 -14.5q-26 0 -42 17t-16 45q0 54 55.5 89.5t139.5 35.5q94 0 140 -34t46 -125v-201q0 -38 8.5 -53.5t29.5 -15.5q2 0 18.5 5.5 t24.5 5.5q10 0 10 -12q0 -22 -29 -40t-63 -18q-35 0 -55.5 16.5t-32.5 54.5q-67 -79 -174 -79q-66 0 -105.5 32t-39.5 85zM145 116q0 -34 22.5 -56t56.5 -22q32 0 63.5 17t50.5 45q13 20 16.5 37.5t3.5 62.5v46q-127 -21 -170 -48.5t-43 -81.5zM166 611q0 41 29 70t70 29 t70.5 -29t29.5 -70q0 -42 -29.5 -71t-71.5 -29q-40 0 -69 29.5t-29 70.5zM202 611q0 -26 18.5 -45t44.5 -19q27 0 45.5 18.5t18.5 45.5q0 25 -18.5 44t-44.5 19t-45 -18.5t-19 -44.5z" />
<glyph unicode="&#xe6;" horiz-adv-x="796" d="M36 99q0 100 118 145q58 23 183 45v46q0 56 -22 79.5t-75 23.5q-35 0 -60.5 -11t-25.5 -27q0 -6 7 -14q15 -21 15 -41q0 -22 -15.5 -36.5t-38.5 -14.5q-27 0 -43 17t-16 45q0 53 55 89t135 36q110 0 154 -57q62 57 145 57q98 0 153 -78q53 -72 53 -160v-18h-325 q1 -81 24 -120q40 -66 116 -66q49 0 84 25t66 82l36 -19q-66 -142 -205 -142q-97 0 -156 53q-6 5 -35 35q-39 -47 -80.5 -67.5t-98.5 -20.5q-67 0 -107.5 31t-40.5 83zM137 120q0 -36 21 -59.5t54 -23.5q31 0 59.5 15t45.5 40q13 20 16.5 37.5t3.5 63.5v53 q-106 -18 -141 -37q-59 -33 -59 -89zM434 268h175q24 0 32.5 7.5t8.5 29.5q0 59 -27.5 95.5t-73.5 36.5q-71 0 -101 -89q-14 -38 -14 -80z" />
<glyph unicode="&#xe7;" horiz-adv-x="444" d="M34 225q0 112 63 184t160 72q67 0 111.5 -34.5t44.5 -84.5q0 -30 -17.5 -49t-43.5 -19t-43 15.5t-17 40.5q0 22 20 46q6 9 6 12q0 12 -17 21t-39 9q-55 0 -89 -55.5t-34 -146.5q0 -88 35 -139t95 -51q39 0 66.5 23.5t51.5 77.5l39 -15q-30 -77 -74 -112t-110 -35l-19 -48 q21 3 29 3q37 0 59.5 -19t22.5 -49q0 -38 -33.5 -62.5t-86.5 -24.5q-45 0 -88 17l15 33q35 -12 61 -12q25 0 40.5 11t15.5 29q0 17 -13 28t-34 11q-11 0 -34 -5l-8 5l37 86q-78 13 -125 77.5t-47 159.5z" />
<glyph unicode="&#xe8;" horiz-adv-x="500" d="M35 220q0 112 64 186.5t160 74.5q92 0 149 -71.5t57 -184.5h-324q0 -92 37.5 -139t101.5 -47q50 0 84.5 24.5t65.5 82.5l35 -19q-61 -142 -204 -142q-101 0 -163.5 65t-62.5 170zM110 660q0 14 10.5 24.5t24.5 10.5q19 0 50 -31l140 -140h-41l-159 97q-25 15 -25 39z M142 268h175q24 0 32.5 7.5t8.5 29.5q0 60 -27.5 96.5t-73.5 36.5q-48 0 -81.5 -46.5t-33.5 -123.5z" />
<glyph unicode="&#xe9;" horiz-adv-x="500" d="M35 220q0 112 64 186.5t160 74.5q92 0 149 -71.5t57 -184.5h-324q0 -92 37.5 -139t101.5 -47q50 0 84.5 24.5t65.5 82.5l35 -19q-61 -142 -204 -142q-101 0 -163.5 65t-62.5 170zM142 268h175q24 0 32.5 7.5t8.5 29.5q0 60 -27.5 96.5t-73.5 36.5q-48 0 -81.5 -46.5 t-33.5 -123.5zM183 524l140 140q31 31 50 31q14 0 24.5 -10.5t10.5 -24.5q0 -24 -25 -39l-159 -97h-41z" />
<glyph unicode="&#xea;" horiz-adv-x="500" d="M35 220q0 112 64 186.5t160 74.5q92 0 149 -71.5t57 -184.5h-324q0 -92 37.5 -139t101.5 -47q50 0 84.5 24.5t65.5 82.5l35 -19q-61 -142 -204 -142q-101 0 -163.5 65t-62.5 170zM102 527l125 166h63l125 -166h-36l-120 101l-121 -101h-36zM142 268h175q24 0 32.5 7.5 t8.5 29.5q0 60 -27.5 96.5t-73.5 36.5q-48 0 -81.5 -46.5t-33.5 -123.5z" />
<glyph unicode="&#xeb;" horiz-adv-x="500" d="M35 220q0 112 64 186.5t160 74.5q92 0 149 -71.5t57 -184.5h-324q0 -92 37.5 -139t101.5 -47q50 0 84.5 24.5t65.5 82.5l35 -19q-61 -142 -204 -142q-101 0 -163.5 65t-62.5 170zM109 610q0 20 15 35t35 15t35 -15t15 -35q0 -21 -15 -35.5t-36 -14.5q-20 0 -34.5 15 t-14.5 35zM142 268h175q24 0 32.5 7.5t8.5 29.5q0 60 -27.5 96.5t-73.5 36.5q-48 0 -81.5 -46.5t-33.5 -123.5zM308 610q0 20 15 35t35 15t35 -15t15 -35q0 -21 -15 -35.5t-36 -14.5q-20 0 -34.5 15t-14.5 35z" />
<glyph unicode="&#xec;" horiz-adv-x="315" d="M10 660q0 14 10.5 24.5t24.5 10.5q19 0 50 -31l140 -140h-41l-159 97q-25 15 -25 39zM18 412v43l188 11v-383q0 -31 11.5 -39t59.5 -8h12v-36h-259v36h12q47 0 58.5 8t11.5 39v279q0 32 -7.5 41t-35.5 9h-51z" />
<glyph unicode="&#xed;" horiz-adv-x="315" d="M18 412v43l188 11v-383q0 -31 11.5 -39t59.5 -8h12v-36h-259v36h12q47 0 58.5 8t11.5 39v279q0 32 -7.5 41t-35.5 9h-51zM83 524l140 140q31 31 50 31q14 0 24.5 -10.5t10.5 -24.5q0 -24 -25 -39l-159 -97h-41z" />
<glyph unicode="&#xee;" horiz-adv-x="315" d="M2 527l125 166h63l125 -166h-36l-120 101l-121 -101h-36zM18 412v43l188 11v-383q0 -31 11.5 -39t59.5 -8h12v-36h-259v36h12q47 0 58.5 8t11.5 39v279q0 32 -7.5 41t-35.5 9h-51z" />
<glyph unicode="&#xef;" horiz-adv-x="315" d="M9 610q0 20 15 35t35 15t35 -15t15 -35q0 -21 -15 -35.5t-36 -14.5q-20 0 -34.5 15t-14.5 35zM18 412v43l188 11v-383q0 -31 11.5 -39t59.5 -8h12v-36h-259v36h12q47 0 58.5 8t11.5 39v279q0 32 -7.5 41t-35.5 9h-51zM208 610q0 20 15 35t35 15t35 -15t15 -35 q0 -21 -15 -35.5t-36 -14.5q-20 0 -34.5 15t-14.5 35z" />
<glyph unicode="&#xf0;" horiz-adv-x="500" d="M34 233q0 104 63 176t154 72q18 0 43 -5q-28 34 -45 51t-74 70l-118 -68l-23 38l102 59l-91 60l26 39q64 -29 121 -66l122 72l25 -37l-105 -62q123 -90 177.5 -184.5t54.5 -211.5q0 -106 -62.5 -178.5t-153.5 -72.5q-90 0 -153 72.5t-63 175.5zM139 232 q0 -99 28.5 -151.5t82.5 -52.5t82.5 52.5t28.5 152.5q0 99 -28 152t-81 53q-113 0 -113 -206z" />
<glyph unicode="&#xf1;" horiz-adv-x="611" d="M27 0v36h14q46 0 55.5 7.5t9.5 39.5v279q0 32 -7.5 41t-35.5 9h-36v43l173 11v-81q64 96 158 96q44 0 80 -20.5t55 -56.5q13 -25 17 -47.5t4 -76.5v-197q0 -32 9.5 -39.5t55.5 -7.5h14v-36h-253v36h14q47 0 56.5 7.5t9.5 39.5v202q0 69 -22 100q-11 15 -31.5 25t-39.5 10 q-32 0 -62.5 -21t-46.5 -55q-18 -38 -18 -117v-144q0 -32 9.5 -39.5t56.5 -7.5h14v-36h-253zM140 557q10 47 36.5 74t63.5 27q27 0 86 -27q43 -19 59 -19q17 0 31.5 14.5t19.5 36.5h35q-5 -47 -35 -76.5t-73 -29.5q-19 0 -34.5 5t-54.5 23q-30 14 -52 14q-36 0 -47 -42h-35z " />
<glyph unicode="&#xf2;" horiz-adv-x="500" d="M34 232q0 105 63 177t155 72q89 0 151.5 -72.5t62.5 -175.5t-63 -175.5t-153 -72.5t-153 72t-63 175zM103 660q0 14 10.5 24.5t24.5 10.5q19 0 50 -31l140 -140h-41l-159 97q-25 15 -25 39zM139 232q0 -99 28.5 -151.5t82.5 -52.5t82.5 52.5t28.5 152.5q0 99 -28 152 t-81 53q-113 0 -113 -206z" />
<glyph unicode="&#xf3;" horiz-adv-x="500" d="M34 232q0 105 63 177t155 72q89 0 151.5 -72.5t62.5 -175.5t-63 -175.5t-153 -72.5t-153 72t-63 175zM139 232q0 -99 28.5 -151.5t82.5 -52.5t82.5 52.5t28.5 152.5q0 99 -28 152t-81 53q-113 0 -113 -206zM176 524l140 140q31 31 50 31q14 0 24.5 -10.5t10.5 -24.5 q0 -24 -25 -39l-159 -97h-41z" />
<glyph unicode="&#xf4;" horiz-adv-x="500" d="M34 232q0 105 63 177t155 72q89 0 151.5 -72.5t62.5 -175.5t-63 -175.5t-153 -72.5t-153 72t-63 175zM95 527l125 166h63l125 -166h-36l-120 101l-121 -101h-36zM139 232q0 -99 28.5 -151.5t82.5 -52.5t82.5 52.5t28.5 152.5q0 99 -28 152t-81 53q-113 0 -113 -206z" />
<glyph unicode="&#xf5;" horiz-adv-x="500" d="M34 232q0 105 63 177t155 72q89 0 151.5 -72.5t62.5 -175.5t-63 -175.5t-153 -72.5t-153 72t-63 175zM86 557q10 47 36.5 74t63.5 27q27 0 86 -27q43 -19 59 -19q17 0 32 14.5t19 36.5h35q-5 -47 -35 -76.5t-73 -29.5q-19 0 -34.5 5t-54.5 23q-30 14 -52 14 q-36 0 -47 -42h-35zM139 232q0 -99 28.5 -151.5t82.5 -52.5t82.5 52.5t28.5 152.5q0 99 -28 152t-81 53q-113 0 -113 -206z" />
<glyph unicode="&#xf6;" horiz-adv-x="500" d="M34 232q0 105 63 177t155 72q89 0 151.5 -72.5t62.5 -175.5t-63 -175.5t-153 -72.5t-153 72t-63 175zM102 610q0 20 15 35t35 15t35 -15t15 -35q0 -21 -15 -35.5t-36 -14.5q-20 0 -34.5 15t-14.5 35zM139 232q0 -99 28.5 -151.5t82.5 -52.5t82.5 52.5t28.5 152.5 q0 99 -28 152t-81 53q-113 0 -113 -206zM301 610q0 20 15 35t35 15t35 -15t15 -35q0 -21 -15 -35.5t-36 -14.5q-20 0 -34.5 15t-14.5 35z" />
<glyph unicode="&#xf7;" horiz-adv-x="606" d="M40 210v80h526v-80h-526zM241 70q0 26 18.5 44t43.5 18t43.5 -18t18.5 -44t-18 -44t-44 -18t-44 18t-18 44zM241 431q0 25 18.5 43.5t43.5 18.5t43.5 -18.5t18.5 -43.5q0 -26 -18 -44t-44 -18t-44 18t-18 44z" />
<glyph unicode="&#xf8;" horiz-adv-x="500" d="M34 232q0 104 63 176.5t153 72.5q46 0 91 -23l50 97h50l-63 -122q41 -35 64.5 -89.5t23.5 -115.5q0 -107 -61.5 -175t-157.5 -68q-52 0 -89 19l-49 -95h-50l61 119q-86 75 -86 204zM139 229q0 -74 19 -127l158 307q-28 29 -65 29q-112 0 -112 -209zM185 57q25 -29 64 -29 q112 0 112 214q0 70 -18 122z" />
<glyph unicode="&#xf9;" horiz-adv-x="611" d="M21 412v43l175 11v-305q0 -41 2.5 -55.5t12.5 -28.5q20 -31 70 -31q77 0 110 70q21 46 21 123v123q0 32 -7.5 41t-35.5 9h-51v43l188 11v-350q0 -48 11 -60.5t52 -12.5h25v-43l-182 -7v83q-33 -48 -70 -69.5t-86 -21.5q-93 0 -135 64q-19 29 -19 97v216q0 32 -7.5 41 t-35.5 9h-38zM155 660q0 14 10.5 24.5t24.5 10.5q19 0 50 -31l140 -140h-41l-159 97q-25 15 -25 39z" />
<glyph unicode="&#xfa;" horiz-adv-x="611" d="M21 412v43l175 11v-305q0 -41 2.5 -55.5t12.5 -28.5q20 -31 70 -31q77 0 110 70q21 46 21 123v123q0 32 -7.5 41t-35.5 9h-51v43l188 11v-350q0 -48 11 -60.5t52 -12.5h25v-43l-182 -7v83q-33 -48 -70 -69.5t-86 -21.5q-93 0 -135 64q-19 29 -19 97v216q0 32 -7.5 41 t-35.5 9h-38zM228 524l140 140q31 31 50 31q14 0 24.5 -10.5t10.5 -24.5q0 -24 -25 -39l-159 -97h-41z" />
<glyph unicode="&#xfb;" horiz-adv-x="611" d="M21 412v43l175 11v-305q0 -41 2.5 -55.5t12.5 -28.5q20 -31 70 -31q77 0 110 70q21 46 21 123v123q0 32 -7.5 41t-35.5 9h-51v43l188 11v-350q0 -48 11 -60.5t52 -12.5h25v-43l-182 -7v83q-33 -48 -70 -69.5t-86 -21.5q-93 0 -135 64q-19 29 -19 97v216q0 32 -7.5 41 t-35.5 9h-38zM147 527l125 166h63l125 -166h-36l-120 101l-121 -101h-36z" />
<glyph unicode="&#xfc;" horiz-adv-x="611" d="M21 412v43l175 11v-305q0 -41 2.5 -55.5t12.5 -28.5q20 -31 70 -31q77 0 110 70q21 46 21 123v123q0 32 -7.5 41t-35.5 9h-51v43l188 11v-350q0 -48 11 -60.5t52 -12.5h25v-43l-182 -7v83q-33 -48 -70 -69.5t-86 -21.5q-93 0 -135 64q-19 29 -19 97v216q0 32 -7.5 41 t-35.5 9h-38zM154 610q0 20 15 35t35 15t35 -15t15 -35q0 -21 -15 -35.5t-36 -14.5q-20 0 -34.5 15t-14.5 35zM353 610q0 20 15 35t35 15t35 -15t15 -35q0 -21 -15 -35.5t-36 -14.5q-20 0 -34.5 15t-14.5 35z" />
<glyph unicode="&#xfd;" horiz-adv-x="537" d="M3 -129q0 27 17 44.5t43 17.5q22 0 36.5 -13t14.5 -32q0 -6 -3.5 -19t-3.5 -16q0 -10 16 -10q24 0 55.5 35.5t59.5 93.5l17 35l-163 369q-14 30 -28 42t-38 12h-13v36h238v-36h-21q-46 0 -46 -25q0 -7 6 -21l110 -257l91 226q10 24 10 40q0 37 -54 37h-16v36h200v-36h-12 q-28 0 -43.5 -17t-34.5 -64l-114 -282q-58 -143 -95 -193q-59 -80 -138 -80q-39 0 -65 22t-26 55zM215 524l140 140q31 31 50 31q14 0 24.5 -10.5t10.5 -24.5q0 -24 -25 -39l-159 -97h-41z" />
<glyph unicode="&#xfe;" horiz-adv-x="574" d="M28 -166h14q46 0 55.5 7.5t9.5 39.5v752q0 32 -7.5 41t-35.5 9h-36v44l173 10v-343q26 46 59 66.5t79 20.5q82 0 139 -71.5t57 -174.5q0 -107 -57.5 -178.5t-144.5 -71.5q-46 0 -76.5 19t-55.5 62v-185q0 -30 12.5 -38.5t60.5 -8.5h14v-36h-260v36zM200 228 q0 -86 32.5 -137.5t85.5 -51.5t82.5 52.5t29.5 149.5q0 88 -29 137t-80 49q-56 0 -88.5 -53t-32.5 -146z" />
<glyph unicode="&#xff;" horiz-adv-x="537" d="M3 -129q0 27 17 44.5t43 17.5q22 0 36.5 -13t14.5 -32q0 -6 -3.5 -19t-3.5 -16q0 -10 16 -10q24 0 55.5 35.5t59.5 93.5l17 35l-163 369q-14 30 -28 42t-38 12h-13v36h238v-36h-21q-46 0 -46 -25q0 -7 6 -21l110 -257l91 226q10 24 10 40q0 37 -54 37h-16v36h200v-36h-12 q-28 0 -43.5 -17t-34.5 -64l-114 -282q-58 -143 -95 -193q-59 -80 -138 -80q-39 0 -65 22t-26 55zM141 610q0 20 15 35t35 15t35 -15t15 -35q0 -21 -15 -35.5t-36 -14.5q-20 0 -34.5 15t-14.5 35zM340 610q0 20 15 35t35 15t35 -15t15 -35q0 -21 -15 -35.5t-36 -14.5 q-20 0 -34.5 15t-14.5 35z" />
<glyph unicode="&#x152;" horiz-adv-x="1000" d="M19 366q0 154 96 255t266 101h570l14 -256h-44q-22 131 -67 170t-169 39h-26q-41 0 -52 -9t-11 -41v-228h23q70 0 98 31t32 106h47v-328h-47q-1 33 -3 51.5t-9.5 39t-21.5 30.5t-38.5 16.5t-61.5 6.5h-19v-255q0 -30 15.5 -39t56.5 -9h37q111 0 158.5 45.5t73.5 174.5h44 l-20 -267h-588q-81 0 -139 21.5t-104 68.5q-52 54 -81.5 126.5t-29.5 149.5zM151 360q0 -313 197 -313q39 0 70 14.5t46 40.5q20 35 20 135v272q0 56 -5 78.5t-21 42.5q-36 45 -111 45q-196 0 -196 -315z" />
<glyph unicode="&#x153;" horiz-adv-x="833" d="M34 232q0 104 63.5 176.5t155.5 72.5q49 0 94 -23.5t73 -63.5q68 87 172 87q92 0 150 -71.5t58 -184.5h-328q0 -96 38.5 -141t102.5 -45q50 0 85.5 25t66.5 82l35 -19q-61 -142 -206 -142q-115 0 -176 77q-64 -77 -170 -77q-94 0 -154 69t-60 178zM139 229q0 -97 29 -149 t84 -52q114 0 114 211q0 96 -29 147.5t-83 51.5q-115 0 -115 -209zM473 268h177q25 0 33.5 7.5t8.5 29.5q0 60 -28 96.5t-74 36.5q-49 0 -81.5 -45t-35.5 -125z" />
<glyph unicode="&#x178;" horiz-adv-x="704" d="M-13 675v47h321v-47h-59q-39 0 -39 -19q0 -12 11 -28l168 -271l124 221q17 31 17 52q0 24 -18.5 34.5t-59.5 10.5h-23v47h284v-47h-16q-44 0 -69 -21t-61 -86l-149 -269v-205q0 -32 14 -39.5t75 -7.5h26v-47h-343v47h26q61 0 75.5 7.5t14.5 39.5v193l-216 342 q-17 28 -33 37t-48 9h-22zM213 846q0 20 15 35t35 15t35 -15t15 -35q0 -21 -15 -35.5t-36 -14.5q-20 0 -34.5 15t-14.5 35zM412 846q0 20 15 35t35 15t35 -15t15 -35q0 -21 -15 -35.5t-36 -14.5q-20 0 -34.5 15t-14.5 35z" />
<glyph unicode="&#x2c6;" horiz-adv-x="333" d="M10 527l125 166h63l125 -166h-36l-120 101l-121 -101h-36z" />
<glyph unicode="&#x2dc;" horiz-adv-x="333" d="M1 557q10 47 36.5 74t63.5 27q27 0 86 -27q43 -19 59 -19q17 0 31.5 14.5t19.5 36.5h35q-5 -47 -35 -76.5t-73 -29.5q-30 0 -89 28q-30 14 -52 14q-36 0 -47 -42h-35z" />
<glyph unicode="&#x2000;" horiz-adv-x="480" />
<glyph unicode="&#x2001;" horiz-adv-x="961" />
<glyph unicode="&#x2002;" horiz-adv-x="480" />
<glyph unicode="&#x2003;" horiz-adv-x="961" />
<glyph unicode="&#x2004;" horiz-adv-x="320" />
<glyph unicode="&#x2005;" horiz-adv-x="240" />
<glyph unicode="&#x2006;" horiz-adv-x="160" />
<glyph unicode="&#x2007;" horiz-adv-x="160" />
<glyph unicode="&#x2008;" horiz-adv-x="120" />
<glyph unicode="&#x2009;" horiz-adv-x="192" />
<glyph unicode="&#x200a;" horiz-adv-x="53" />
<glyph unicode="&#x2010;" horiz-adv-x="333" d="M42 195v83h249v-83h-249z" />
<glyph unicode="&#x2011;" horiz-adv-x="333" d="M42 195v83h249v-83h-249z" />
<glyph unicode="&#x2012;" horiz-adv-x="333" d="M42 195v83h249v-83h-249z" />
<glyph unicode="&#x2013;" d="M0 206v61h556v-61h-556z" />
<glyph unicode="&#x2014;" horiz-adv-x="1000" d="M0 206v61h1000v-61h-1000z" />
<glyph unicode="&#x2018;" horiz-adv-x="204" d="M26 543q0 103 131 193l24 -28q-102 -73 -102 -137q0 -9 7 -9q1 0 3 1l18 1q29 1 47.5 -16.5t18.5 -42.5q0 -26 -18.5 -43.5t-46.5 -17.5q-37 0 -59.5 27t-22.5 72z" />
<glyph unicode="&#x2019;" horiz-adv-x="204" d="M24 478q101 64 101 136q0 9 -7 9h-3q-4 -1 -13 -1q-33 0 -52 15.5t-19 43.5q0 26 18.5 43t46.5 17q36 0 59 -26.5t23 -68.5q0 -65 -42 -121q-28 -38 -89 -75z" />
<glyph unicode="&#x201a;" horiz-adv-x="204" d="M24 -155q101 67 101 136q0 9 -7 9h-3q-2 -1 -16 -1q-31 0 -49.5 16t-18.5 43q0 26 18.5 43t46.5 17q37 0 59.5 -27t22.5 -72q0 -102 -131 -192z" />
<glyph unicode="&#x201c;" horiz-adv-x="389" d="M26 543q0 103 131 193l24 -28q-46 -28 -74 -66.5t-28 -70.5q0 -9 7 -9q1 0 3 1l18 1q29 1 47.5 -16.5t18.5 -42.5q0 -26 -18.5 -43.5t-46.5 -17.5q-37 0 -59.5 27t-22.5 72zM210 543q0 103 131 193l24 -28q-102 -73 -102 -137q0 -9 7 -9q1 0 3 1l18 1q29 1 47.5 -16.5 t18.5 -42.5q0 -26 -18.5 -43.5t-46.5 -17.5q-37 0 -59.5 27t-22.5 72z" />
<glyph unicode="&#x201d;" horiz-adv-x="389" d="M24 473q101 73 101 136q0 9 -7 9h-3q-2 -1 -16 -1q-31 0 -49.5 16t-18.5 43q0 26 18.5 43t46.5 17q37 0 59.5 -27t22.5 -72q0 -102 -131 -193zM208 473q101 73 101 136q0 9 -7 9h-3q-2 -1 -16 -1q-31 0 -49.5 16t-18.5 43q0 26 18.5 43t46.5 17q37 0 59.5 -27t22.5 -72 q0 -102 -131 -193z" />
<glyph unicode="&#x201e;" horiz-adv-x="389" d="M24 -155q101 71 101 136q0 9 -7 9h-3q-2 -1 -16 -1q-31 0 -49.5 16t-18.5 43q0 26 18.5 43t46.5 17q37 0 59.5 -27t22.5 -72q0 -102 -131 -192zM208 -155q101 71 101 136q0 9 -7 9h-3q-2 -1 -16 -1q-31 0 -49.5 16t-18.5 43q0 26 18.5 43t46.5 17q37 0 59.5 -27t22.5 -72 q0 -102 -131 -192z" />
<glyph unicode="&#x2022;" horiz-adv-x="606" d="M134 386q0 70 49.5 119t119.5 49t119 -49t49 -119q0 -71 -49.5 -120t-120.5 -49q-68 0 -117.5 50t-49.5 119z" />
<glyph unicode="&#x2026;" horiz-adv-x="1000" d="M104 49q0 26 18.5 44t44.5 18q25 0 43.5 -18.5t18.5 -43.5q0 -26 -18.5 -44.5t-44.5 -18.5t-44 18.5t-18 44.5zM437 49q0 26 18.5 44t44.5 18t44 -18.5t18 -43.5q0 -26 -18.5 -44.5t-44.5 -18.5t-44 18.5t-18 44.5zM770 49q0 26 18.5 44t44.5 18q25 0 43.5 -18.5 t18.5 -43.5q0 -26 -18.5 -44.5t-44.5 -18.5t-44 18.5t-18 44.5z" />
<glyph unicode="&#x202f;" horiz-adv-x="192" />
<glyph unicode="&#x2039;" horiz-adv-x="259" d="M38 243l150 145q14 14 22 14q11 0 11 -12q1 -8 -44 -72l-52 -75q95 -136 95 -147t-12 -11q-6 -1 -22 15q-109 106 -128 124q-13 13 -20 19z" />
<glyph unicode="&#x203a;" horiz-adv-x="259" d="M39 96q0 8 16.5 34t78.5 113q-62 89 -78.5 114.5t-16.5 32.5q0 4 4 8t8 4q6 0 22 -15l148 -144q-67 -64 -109 -105l-39 -38q-17 -16 -23 -15q-11 0 -11 11z" />
<glyph unicode="&#x205f;" horiz-adv-x="240" />
<glyph unicode="&#x20ac;" d="M0 385l20 57h43q28 125 102.5 198t164.5 73q41 0 70.5 -13.5t73.5 -51.5l33 57h38v-204h-35q-31 88 -71 127.5t-105 39.5q-144 0 -168 -226h302l-20 -57h-286v-75h267l-20 -57h-244q18 -223 169 -223q65 0 105 39.5t71 127.5h35v-204h-38l-33 57q-44 -38 -73.5 -51.5 t-70.5 -13.5q-102 0 -175 73t-94 195h-60l20 57h34q-1 14 -1 30q0 27 1 45h-55z" />
<glyph unicode="&#x2122;" horiz-adv-x="1000" d="M40 571l9 151h351l9 -151h-30q-7 56 -28.5 88.5t-66.5 32.5q-21 0 -21 -16v-287q0 -15 7.5 -18.5t38.5 -3.5h16v-30h-201v30h16q31 0 39 4t8 18v287q0 16 -22 16q-57 0 -80 -56q-9 -27 -16 -65h-29zM442 337v30q41 1 53.5 17.5t12.5 68.5v217q0 15 -8 18.5t-42 3.5h-12 v30h156l107 -272l103 272h148v-30h-12q-31 0 -38.5 -3.5t-7.5 -18.5v-281q0 -15 7.5 -18.5t38.5 -3.5h12v-30h-192v30h12q31 0 38.5 3.5t7.5 18.5v274l-122 -326h-29l-131 328v-212q0 -52 12.5 -68.5t53.5 -17.5v-30h-168z" />
<glyph unicode="&#xe000;" horiz-adv-x="465" d="M0 0v465h465v-465h-465z" />
</font>
</defs>
</svg>
