<?xml version="1.0" standalone="no"?>
<!DOCTYPE svg PUBLIC "-//W3C//DTD SVG 1.1//EN" "http://www.w3.org/Graphics/SVG/1.1/DTD/svg11.dtd" >
<svg xmlns="http://www.w3.org/2000/svg">
<metadata></metadata>
<defs>
<font id="texgyrescholabold" horiz-adv-x="611" >
<font-face units-per-em="1000" ascent="798" descent="-202" />
<missing-glyph horiz-adv-x="287" />
<glyph unicode="&#xfb01;" horiz-adv-x="685" d="M15 413v60h83v13q0 124 75.5 185.5t215.5 61.5q93 0 142 -27t49 -79q0 -37 -24 -59.5t-62 -22.5q-35 0 -57.5 20t-22.5 52q0 10 6.5 28.5t6.5 20.5q0 20 -37 20q-68 0 -101.5 -41.5t-33.5 -135.5v-36h174q47 0 163 7v-381q0 -32 9 -40t50 -8h16v-51h-307v51h14q43 0 52 8 t9 39v221q0 66 -9 80t-53 14h-118v-314q0 -32 9 -40t50 -8h13v-51h-306v51h14q45 0 54 7.5t9 39.5v315h-83z" />
<glyph unicode="&#xfb02;" horiz-adv-x="685" d="M15 413v60h83v13q0 120 74.5 183.5t198.5 63.5q63 0 117 -16l104 20v-638q0 -32 9 -40t50 -8h15v-51h-306v51h14q43 0 52 8t9 39v315h-180v-314q0 -32 9 -40t50 -8h13v-51h-306v51h14q45 0 54 7.5t9 39.5v315h-83zM255 473h180v90q-18 5 -29.5 20.5t-11.5 34.5 q0 9 5 21.5t10.5 21.5t5.5 10q0 15 -35 15q-125 0 -125 -177v-36z" />
<glyph unicode="&#xfb03;" horiz-adv-x="1030" d="M14 413v60h87v13q0 111 60 179t158 68q62 0 103.5 -31t41.5 -78q0 -35 -23 -58.5t-57 -23.5q-32 0 -53.5 20t-21.5 49q0 15 15 38t15 24q0 8 -16 8q-15 0 -30.5 -11.5t-22.5 -28.5q-12 -26 -12 -111v-57h202v13q0 124 75.5 185.5t215.5 61.5q93 0 142 -27t49 -79 q0 -37 -24 -59.5t-62 -22.5q-35 0 -57.5 20t-22.5 52q0 10 6.5 28.5t6.5 20.5q0 20 -37 20q-68 0 -101.5 -41.5t-33.5 -135.5v-36h174q47 0 163 7v-381q0 -32 9 -40t50 -8h16v-51h-307v51h14q43 0 52 8t9 39v221q0 66 -9 80t-53 14h-118v-314q0 -32 9 -40t50 -8h13v-51h-306 v51h14q45 0 54 7.5t9 39.5v315h-202v-316q0 -30 13.5 -38.5t61.5 -8.5h18v-50h-330v50h14q47 0 56.5 7.5t9.5 39.5v316h-87z" />
<glyph unicode="&#xfb04;" horiz-adv-x="1030" d="M14 413v60h87v13q0 111 60 179t158 68q62 0 103.5 -31t41.5 -78q0 -35 -23 -58.5t-57 -23.5q-32 0 -53.5 20t-21.5 49q0 15 15 38t15 24q0 8 -16 8q-15 0 -30.5 -11.5t-22.5 -28.5q-12 -26 -12 -111v-57h202v13q0 120 74.5 183.5t198.5 63.5q63 0 117 -16l104 20v-638 q0 -32 9 -40t50 -8h15v-51h-306v51h14q43 0 52 8t9 39v315h-180v-314q0 -32 9 -40t50 -8h13v-51h-306v51h14q45 0 54 7.5t9 39.5v315h-202v-316q0 -30 13.5 -38.5t61.5 -8.5h18v-50h-330v50h14q47 0 56.5 7.5t9.5 39.5v316h-87zM617 473h180v90q-18 5 -29.5 20.5t-11.5 34.5 q0 9 5 21.5t10.5 21.5t5.5 10q0 15 -35 15q-125 0 -125 -177v-36z" />
<glyph horiz-adv-x="1000" />
<glyph horiz-adv-x="1000" />
<glyph unicode="&#xd;" horiz-adv-x="1000" />
<glyph unicode=" "  horiz-adv-x="287" />
<glyph unicode="&#x09;" horiz-adv-x="287" />
<glyph unicode="&#xa0;" horiz-adv-x="287" />
<glyph unicode="!" horiz-adv-x="296" d="M57 79q0 38 27.5 65.5t65.5 27.5q39 0 66.5 -27.5t27.5 -65.5q0 -39 -27.5 -66.5t-67.5 -27.5q-37 0 -64.5 28t-27.5 66zM57 637q0 47 25 73.5t69 26.5t68.5 -26.5t24.5 -73.5q0 -29 -5 -52t-29 -106q-27 -93 -33 -251h-53q-5 109 -14 165t-39 155q-14 47 -14 89z" />
<glyph unicode="&#x22;" horiz-adv-x="333" d="M-12 668q0 29 19.5 49t48.5 20t48.5 -20t19.5 -50q0 -14 -3 -32l-42 -219h-46l-42 219q-3 18 -3 33zM210 668q0 29 19.5 49t48.5 20t48.5 -20t19.5 -50q0 -14 -3 -32l-42 -219h-46l-42 219q-3 18 -3 33z" />
<glyph unicode="#" horiz-adv-x="574" d="M41 220v83h106l16 108h-96v83h107l30 206h90l-30 -206h86l29 206h90l-29 -206h93v-83h-105l-15 -108h94v-83h-106l-32 -220h-90l32 220h-86l-32 -220h-90l32 220h-94zM237 303h85l16 108h-85z" />
<glyph unicode="$" horiz-adv-x="574" d="M25 153q0 41 24 67.5t62 26.5q35 0 58 -21t23 -52q0 -46 -35 -74q-7 -7 -7 -11q0 -16 33.5 -30.5t77.5 -17.5v238l-34 11q-97 31 -140 75t-42 115q0 89 57 147.5t159 71.5v102h58v-101q101 -7 160 -45.5t59 -97.5q0 -39 -24.5 -64.5t-62.5 -25.5q-32 0 -54 20.5t-22 50.5 q0 13 11.5 38.5t11.5 30.5q0 31 -79 39v-213l26 -8q108 -34 156 -84t48 -130q0 -94 -60 -152t-170 -71v-125h-58v123q-113 10 -174.5 54t-61.5 113zM165 549q0 -69 83 -94l13 -4v194q-96 -17 -96 -96zM319 44q48 5 76.5 33t28.5 72q0 80 -95 109l-10 3v-217z" />
<glyph unicode="%" horiz-adv-x="833" d="M17 443q0 92 74.5 178.5t160.5 86.5q57 0 94 -48q39 -19 92 -19q56 0 95 19t72 62h46l-414 -722h-51l349 612q-54 -18 -102 -18q-33 0 -66 9q3 -21 3 -30q0 -94 -68 -176t-152 -82q-58 0 -95.5 36t-37.5 92zM121 416q0 -24 14 -39t37 -15q57 0 107.5 70t50.5 149 q0 18 -6 39q-35 12 -58 38q-28 -10 -43 -25.5t-42 -63.5q-60 -105 -60 -153zM466 140q0 96 72.5 181.5t160.5 85.5q53 0 87.5 -35t34.5 -89q0 -56 -28 -117.5t-80 -106.5t-112 -45q-59 0 -97 35.5t-38 90.5zM569 114q0 -22 15 -37.5t36 -15.5q58 0 109.5 70t51.5 148 q0 32 -16.5 54t-40.5 22q-40 0 -83 -70q-72 -117 -72 -171z" />
<glyph unicode="&#x26;" horiz-adv-x="852" d="M39 179q0 75 49.5 128.5t152.5 99.5q-39 81 -39 144q0 81 60.5 133.5t155.5 52.5q82 0 132 -39.5t50 -103.5q0 -59 -41 -99t-134 -78q38 -65 80 -128.5t60 -82.5q48 58 48 99q0 25 -21 36.5t-68 12.5v54h273v-54q-53 -1 -78 -19t-55 -75q-29 -55 -63 -101q50 -66 102 -66 q51 0 69 84l50 -11q-9 -88 -61 -134.5t-123 -46.5q-92 0 -158 66q-94 -67 -211 -67q-106 0 -168 56t-62 139zM209 258q0 -80 53 -135.5t112 -55.5q35 0 66 22q-110 134 -175 268q-56 -35 -56 -99zM342 610q0 -51 55 -146q93 42 93 125q0 41 -22 68.5t-56 27.5 q-30 0 -50 -21.5t-20 -53.5z" />
<glyph unicode="'" horiz-adv-x="241" d="M52 668q0 29 19.5 49t48.5 20t48.5 -20t19.5 -50q0 -14 -3 -32l-42 -219h-46l-42 219q-3 18 -3 33z" />
<glyph unicode="(" horiz-adv-x="389" d="M72 310q0 133 69.5 247t196.5 180v-50q-76 -54 -108.5 -145t-32.5 -233t32.5 -233t108.5 -144v-50q-126 65 -196 179.5t-70 248.5z" />
<glyph unicode=")" horiz-adv-x="389" d="M50 -68q76 54 108.5 145t32.5 233t-32.5 233t-108.5 144v50q125 -66 195.5 -180t70.5 -248q0 -133 -70 -247t-196 -180v50z" />
<glyph unicode="*" horiz-adv-x="500" d="M56 430q0 34 33 49q16 6 55 8q36 3 66 20l16 10l-16 9q-23 13 -37.5 16.5t-52.5 5.5q-29 2 -46.5 17.5t-17.5 38.5q0 19 14 32.5t34 13.5q22 0 40 -16q8 -8 28 -38q22 -30 51 -47l16 -10v19q0 24 -4 38t-22 51q-10 19 -10 37q0 22 14 37.5t34 15.5t34.5 -16t14.5 -38 q0 -16 -20 -58q-16 -31 -16 -67v-19l16 10q23 14 33 24.5t31 41.5q23 35 56 35q20 0 33.5 -13.5t13.5 -32.5q0 -32 -33 -49q-11 -5 -55 -9q-33 -1 -66 -20l-16 -9l16 -9q23 -13 37.5 -16.5t51.5 -5.5q29 -2 47 -18t18 -39q0 -19 -13 -31.5t-32 -12.5q-20 0 -33 10t-38 44 q-20 28 -51 46l-16 10v-19q0 -24 4 -38.5t21 -50.5q10 -19 10 -36q0 -23 -14 -38.5t-34 -15.5t-34 15.5t-14 37.5q0 16 20 59q16 31 16 67v19l-16 -10q-21 -13 -32 -24t-32 -42q-23 -35 -56 -35q-19 0 -33 13.5t-14 32.5z" />
<glyph unicode="+" horiz-adv-x="606" d="M44 200v100h209v209h100v-209h209v-100h-209v-209h-100v209h-209z" />
<glyph unicode="," horiz-adv-x="278" d="M39 75q0 41 28 69.5t68 28.5q45 0 73 -33.5t28 -87.5q0 -136 -169 -238l-27 41q99 69 99 129q0 6 -4 6h-4q-2 -1 -8 -1q-36 0 -60 24.5t-24 61.5z" />
<glyph unicode="-" horiz-adv-x="333" d="M42 180v130h249v-130h-249z" />
<glyph unicode="." horiz-adv-x="278" d="M45 79q0 39 27.5 66.5t66.5 27.5t66.5 -27.5t27.5 -66.5t-27.5 -66.5t-67.5 -27.5q-38 0 -65.5 28t-27.5 66z" />
<glyph unicode="/" horiz-adv-x="278" d="M-23 -15l251 752h74l-251 -752h-74z" />
<glyph unicode="0" horiz-adv-x="574" d="M27 347q0 156 74 258.5t186 102.5q115 0 187 -106t72 -260q0 -152 -74.5 -254t-184.5 -102q-112 0 -186 102.5t-74 258.5zM199 347q0 -183 17.5 -246t69.5 -63q53 0 69.5 64t16.5 243q0 126 -7.5 191t-25.5 92.5t-53 27.5q-54 0 -70.5 -64.5t-16.5 -244.5z" />
<glyph unicode="1" horiz-adv-x="574" d="M83 583v56q166 3 253 69h35v-564q0 -48 1 -58.5t6 -16.5q11 -15 81 -15h32v-54h-399v54h32q71 0 83 15q5 6 6 16.5t1 58.5v355q0 62 -11.5 73t-77.5 11h-42z" />
<glyph unicode="2" horiz-adv-x="574" d="M19 -4v47q38 54 77.5 101t123.5 135q79 84 108.5 138.5t29.5 116.5q0 56 -29 86.5t-81 30.5q-38 0 -71 -21t-33 -45q0 -12 16 -19q35 -17 50 -37.5t15 -52.5q0 -39 -23 -62t-62 -23q-45 0 -72 31.5t-27 83.5q0 85 69.5 143.5t171.5 58.5q106 0 176 -54t70 -134 q0 -75 -54 -145q-21 -27 -57 -54t-142 -96q-56 -37 -100 -75h193q48 1 58 2t17 6q12 7 23 58l11 50h54l-23 -270q-40 4 -61 4h-376q-17 0 -52 -4z" />
<glyph unicode="3" horiz-adv-x="574" d="M24 156q0 42 25 68.5t65 26.5q37 0 62 -24t25 -59q0 -21 -7 -34.5t-30 -35.5q-10 -9 -10 -18q0 -16 27 -29t59 -13q55 0 85.5 41.5t30.5 116.5q0 142 -93 142q-1 0 -9.5 -1.5t-23.5 -3t-33 -1.5q-16 0 -26 10.5t-10 27.5q0 33 36 33q4 0 35.5 -5.5t40.5 -5.5q35 0 56 38 t21 102q0 59 -26.5 91.5t-73.5 32.5q-28 0 -52 -12t-24 -26q0 -5 7 -12q40 -37 40 -75q0 -35 -22.5 -57t-58.5 -22q-39 0 -65 26t-26 65q0 70 65 117.5t162 47.5q106 0 171 -48.5t65 -128.5q0 -123 -161 -163q92 -12 135.5 -54.5t43.5 -120.5q0 -100 -73 -153.5t-191 -53.5 q-108 0 -175 47t-67 123z" />
<glyph unicode="4" horiz-adv-x="574" d="M19 181v74l364 453h69l-6 -152v-308h100v-67h-100v-37q0 -48 1 -58.5t6 -17.5q12 -14 62 -14h21v-54h-341v54h21q55 0 66 14q5 7 6 17.5t1 58.5v37h-270zM92 248h197v250z" />
<glyph unicode="5" horiz-adv-x="574" d="M31 151q0 46 26 74t70 28q38 0 61.5 -22.5t23.5 -59.5q0 -25 -12.5 -41.5t-41.5 -30.5q-12 -7 -12 -14q0 -16 27 -29t61 -13q60 0 91.5 47.5t31.5 138.5q0 163 -113 163q-65 0 -111 -38q2 -12 2 -16q0 -16 -12 -28t-29 -12q-16 0 -26.5 10.5t-10.5 26.5q0 19 26 45 l23 328q81 -17 195 -17q123 0 181 14q9 3 16 3q8 0 8 -11q0 -65 -64.5 -113t-158.5 -48q-55 0 -126 15l-15 -129q84 38 144 38q108 0 178.5 -64t70.5 -162q0 -110 -76.5 -179t-199.5 -69q-104 0 -166 45t-62 120z" />
<glyph unicode="6" horiz-adv-x="574" d="M29 306q0 175 86.5 288.5t226.5 113.5q86 0 137 -38t51 -102q0 -41 -25 -65.5t-68 -24.5q-39 0 -63.5 21.5t-24.5 55.5q0 17 14 45.5t14 32.5q0 23 -43 23q-59 0 -95.5 -78t-36.5 -217q31 36 64.5 51t81.5 15q89 0 145 -57t56 -147q0 -103 -72 -170t-182 -67 q-121 0 -193.5 85.5t-72.5 234.5zM208 194q0 -77 22 -119t63 -42q82 0 82 179q0 137 -79 140q-48 0 -68 -39t-20 -119z" />
<glyph unicode="7" horiz-adv-x="574" d="M45 409l34 299q126 -14 239 -14q140 0 228 14v-42q-111 -236 -139.5 -333t-28.5 -236q0 -54 -26 -82.5t-73 -28.5q-42 0 -67 27t-25 71q0 59 53 162q9 18 127 201l68 101l-132 -3q-19 0 -68.5 2t-63.5 2q-27 0 -36.5 -16.5t-24.5 -84.5l-10 -45z" />
<glyph unicode="8" horiz-adv-x="574" d="M27 163q0 61 32.5 95.5t105.5 57.5q-116 62 -116 179q0 97 69.5 155t185.5 58q97 0 157 -43t60 -112q0 -96 -118 -142q143 -57 143 -196q0 -103 -74.5 -166t-195.5 -63q-114 0 -181.5 48t-67.5 129zM157 166q0 -60 34.5 -94t95.5 -34q59 0 97 33t38 84q0 53 -34 74 t-149 54q-13 4 -20 6q-35 -29 -48.5 -55.5t-13.5 -67.5zM179 560q0 -55 38.5 -80.5t129.5 -47.5l7 6q42 37 42 104q0 53 -29.5 83.5t-79.5 30.5q-46 0 -77 -27.5t-31 -68.5z" />
<glyph unicode="9" horiz-adv-x="574" d="M25 468q0 104 70.5 172t179.5 68q117 0 193.5 -87.5t76.5 -234.5q0 -175 -82.5 -287.5t-231.5 -112.5q-85 0 -135.5 35t-50.5 93q0 43 27 71.5t68 28.5q37 0 60.5 -22.5t23.5 -58.5q0 -25 -20 -57q-6 -9 -6 -18q0 -20 34 -20q70 0 103.5 71.5t33.5 219.5 q-59 -66 -146 -66q-85 0 -141.5 58t-56.5 147zM198 491q0 -153 84 -153q38 0 60.5 39t22.5 105q0 76 -20.5 125t-61.5 49q-85 0 -85 -165z" />
<glyph unicode=":" horiz-adv-x="278" d="M57 79q0 38 27.5 65.5t65.5 27.5q39 0 66.5 -27.5t27.5 -65.5q0 -39 -27.5 -66.5t-67.5 -27.5q-37 0 -64.5 28t-27.5 66zM57 388q0 38 27.5 65.5t65.5 27.5q39 0 66.5 -27.5t27.5 -65.5q0 -39 -27.5 -66.5t-67.5 -27.5q-37 0 -64.5 28t-27.5 66z" />
<glyph unicode=";" horiz-adv-x="278" d="M47 75q0 42 27.5 70.5t68.5 28.5q45 0 73 -33.5t28 -87.5q0 -136 -169 -238l-27 40q99 70 99 129q0 6 -4 6h-4q-2 -1 -8 -1q-36 0 -60 24.5t-24 61.5zM52 388q0 38 27.5 65.5t65.5 27.5q39 0 66.5 -27.5t27.5 -65.5q0 -39 -27.5 -66.5t-67.5 -27.5q-37 0 -64.5 28 t-27.5 66z" />
<glyph unicode="&#x3c;" horiz-adv-x="606" d="M65 206v88l453 235v-112l-321 -167l321 -167v-112z" />
<glyph unicode="=" horiz-adv-x="606" d="M44 110v100h518v-100h-518zM44 290v100h518v-100h-518z" />
<glyph unicode="&#x3e;" horiz-adv-x="606" d="M65 -29v112l321 167l-321 167v112l453 -235v-88z" />
<glyph unicode="?" horiz-adv-x="500" d="M23 581q0 69 63 112.5t162 43.5q105 0 166.5 -48t61.5 -130q0 -77 -55 -124l-93 -72q-46 -36 -59 -59t-15 -76h-54q-3 24 -3 42q0 34 11 61.5t52 101.5q40 72 40 137q0 53 -24.5 81.5t-69.5 28.5q-23 0 -38 -7t-15 -18q0 -2 12.5 -14.5t25.5 -32.5t13 -40 q0 -35 -24 -57.5t-62 -22.5q-41 0 -68 26.5t-27 66.5zM135 79q0 39 27.5 66.5t66.5 27.5t66.5 -27.5t27.5 -66.5t-27.5 -66.5t-67.5 -27.5q-38 0 -65.5 28t-27.5 66z" />
<glyph unicode="@" horiz-adv-x="747" d="M24 362q0 156 106.5 265.5t258.5 109.5q139 0 236 -90.5t97 -220.5q0 -109 -73.5 -193.5t-168.5 -84.5q-35 0 -56 15.5t-21 40.5q0 2 2 16q-40 -75 -113 -75q-56 0 -94 43t-38 106q0 100 66 189.5t159 89.5q33 0 53.5 -11.5t39.5 -39.5l12 34h104l-92 -288q-7 -21 -7 -37 q0 -22 24 -22q54 0 96.5 66t42.5 144q0 112 -76 184.5t-194 72.5q-129 0 -214.5 -88.5t-85.5 -221.5q0 -136 86.5 -228t214.5 -92q80 0 146 37t109 107h69q-38 -94 -132.5 -149.5t-193.5 -55.5q-152 0 -257.5 110t-105.5 267zM263 256q0 -59 46 -59q49 0 84 83 q20 48 40 112.5t20 83.5q0 18 -14 31.5t-33 13.5q-51 0 -97 -94.5t-46 -170.5z" />
<glyph unicode="A" horiz-adv-x="759" d="M-18 0v54q44 5 76 38.5t66 114.5l227 530h76l257 -620q16 -38 33.5 -49.5t60.5 -13.5v-54h-351v54l17 1q37 2 47.5 6t10.5 18q1 8 -12 41l-38 98h-249l-16 -38q-17 -41 -16 -57q0 -34 23 -50t77 -19v-54h-289zM229 285h198l-97 239z" />
<glyph unicode="B" horiz-adv-x="778" d="M17 0v54h15q70 0 82 15q5 6 6 16.5t1 58.5v434q0 49 -1 59t-6 17q-13 14 -82 14h-15v54h386q89 0 134 -8.5t87 -31.5q37 -21 58 -57.5t21 -79.5q0 -68 -48 -108.5t-149 -56.5q111 -15 170.5 -64.5t59.5 -126.5q0 -50 -29 -94t-77 -65q-67 -30 -208 -30h-405zM301 118 q0 -45 9.5 -54.5t51.5 -9.5h30q76 0 114.5 38t38.5 108q0 73 -40 108t-135 35h-69v-225zM301 398h49q92 0 132 37t40 106q0 62 -34.5 94.5t-100.5 32.5h-30q-29 0 -42.5 -10.5t-13.5 -47.5v-212z" />
<glyph unicode="C" horiz-adv-x="778" d="M40 352q0 168 106.5 276.5t271.5 108.5q53 0 93.5 -11.5t89.5 -41.5l54 49h43l10 -286l-53 -6q-34 125 -90 184.5t-139 59.5q-92 0 -139.5 -80t-47.5 -235q0 -165 49 -244t151 -79q86 0 144 57t78 161l62 -15q-29 -134 -106.5 -199.5t-210.5 -65.5q-171 0 -271 110 q-95 105 -95 257z" />
<glyph unicode="D" horiz-adv-x="833" d="M19 0v54h15q70 0 82 15q5 6 6 16.5t1 58.5v434q0 48 -1 58.5t-6 16.5q-12 15 -82 15h-15v54h356q106 0 168 -12t107 -42q143 -94 143 -299q0 -103 -35.5 -182t-102.5 -126q-88 -61 -268 -61h-368zM303 119q0 -40 11.5 -52.5t48.5 -12.5h21q111 0 160.5 75.5t49.5 241.5 q0 297 -206 297h-25q-36 0 -48 -12t-12 -48v-489z" />
<glyph unicode="E" horiz-adv-x="759" d="M16 0v54h15q70 0 82 15q5 6 6 16.5t1 58.5v434q0 48 -1 58.5t-6 16.5q-12 15 -82 15h-15v54h671l6 -260h-52q-24 84 -58 132q-54 74 -169 74h-28q-60 0 -76 -22q-10 -15 -10 -64v-181h37q45 0 77.5 37.5t40.5 104.5h54v-339h-54q-8 67 -40.5 104.5t-77.5 37.5h-37v-222 q0 -41 16 -56q9 -9 23 -11.5t51 -2.5h30q91 0 147 51.5t87 163.5h53l-12 -269h-679z" />
<glyph unicode="F" horiz-adv-x="722" d="M22 0v54h15q70 0 82 15q5 6 6 16.5t1 58.5v434q0 48 -1 58.5t-6 16.5q-12 15 -82 15h-15v54h662l6 -260h-52q-24 85 -58 132q-54 74 -169 74h-19q-60 0 -76 -22q-10 -15 -10 -64v-181h37q46 0 78 37t40 105h54v-339h-54q-8 67 -40.5 104.5t-77.5 37.5h-37v-202 q0 -48 1 -58.5t6 -16.5q12 -15 83 -15h26v-54h-400z" />
<glyph unicode="G" horiz-adv-x="833" d="M39 350q0 161 99 266q112 121 287 121q54 0 96 -12t95 -42l59 50h44l9 -287h-53q-25 114 -87 176.5t-151 62.5q-44 0 -81.5 -20t-59.5 -55q-57 -92 -57 -254q0 -145 41 -233q19 -41 54.5 -63.5t81.5 -22.5q68 0 108 44.5t40 124.5q0 56 -11 66t-72 10h-19v54h355v-54 q-71 -1 -82 -14q-5 -6 -6 -17t-1 -59v-206h-53l-49 98q-37 -38 -70 -58q-73 -41 -168 -41q-155 0 -252 101.5t-97 263.5z" />
<glyph unicode="H" horiz-adv-x="870" d="M20 0v54h15q70 0 82 15q5 6 6 16.5t1 58.5v433q0 49 -1 59.5t-6 16.5q-12 15 -82 15h-15v54h389v-54h-15q-71 0 -83 -15q-5 -6 -6 -16.5t-1 -59.5v-178h261v178q0 49 -1 59.5t-6 16.5q-12 15 -82 15h-15v54h389v-54h-15q-71 0 -83 -15q-5 -6 -6 -16.5t-1 -59.5v-433 q0 -49 1 -59t6 -16q12 -15 83 -15h15v-54h-389v54h15q70 0 82 15q5 6 6 16.5t1 58.5v195h-261v-195q0 -49 1 -59t6 -16q12 -15 83 -15h15v-54h-389z" />
<glyph unicode="I" horiz-adv-x="444" d="M28 0v54h15q70 0 82 15q5 6 6 16.5t1 58.5v434q0 48 -1 58.5t-6 16.5q-12 15 -82 15h-15v54h389v-54h-15q-71 0 -83 -15q-5 -6 -6 -16t-1 -59v-434q0 -49 1 -59t6 -16q12 -15 83 -15h15v-54h-389z" />
<glyph unicode="J" horiz-adv-x="648" d="M4 182q0 64 35 106t89 42q45 0 74 -29t29 -73q0 -41 -26 -67.5t-66 -26.5q-6 0 -19 2.5t-17 2.5q-19 0 -19 -19q0 -29 35.5 -51.5t82.5 -22.5q39 0 72.5 16t52.5 43q27 39 27 140v333q0 49 -1 59t-6 16q-12 15 -82 15h-15v54h389v-54h-15q-71 0 -83 -15q-5 -6 -6 -16 t-1 -59v-298q0 -295 -288 -295q-112 0 -177 52.5t-65 144.5z" />
<glyph unicode="K" horiz-adv-x="815" d="M15 0v54h15q70 0 82 15q5 6 6 16.5t1 58.5v434q0 48 -1 58.5t-6 16.5q-12 15 -82 15h-15v54h389v-54h-15q-71 0 -83 -15q-5 -6 -6 -16.5t-1 -58.5v-234l221 234q31 33 33 55q0 35 -75 35h-24v54h337v-54q-50 -3 -94 -28.5t-109 -89.5l-83 -87l208 -332q33 -54 48 -64.5 t57 -12.5v-54h-364v54h13q68 0 68 23q0 11 -12 32l-140 229l-84 -88v-106q0 -48 1 -58.5t6 -16.5q12 -15 83 -15h15v-54h-389z" />
<glyph unicode="L" horiz-adv-x="722" d="M19 0v54h15q70 0 82 15q5 6 6 16.5t1 59.5v433q0 48 -1 58.5t-6 16.5q-12 15 -82 15h-15v54h396v-54h-22q-71 0 -83 -15q-5 -6 -6 -16.5t-1 -58.5v-454q0 -41 16 -56q9 -9 23 -11.5t51 -2.5h21q106 0 169 75q38 46 65 140h53l-12 -269h-670z" />
<glyph unicode="M" horiz-adv-x="981" d="M9 0v54q58 1 82 27q16 17 21 43.5t5 92.5v361q0 48 -1 58.5t-6 16.5q-12 15 -83 15h-11v54h322l155 -430l146 430h326v-54h-11q-71 0 -83 -15q-5 -6 -6 -16.5t-1 -58.5v-434q0 -48 1 -58.5t6 -16.5q12 -15 83 -15h11v-54h-382v54h11q71 0 83 15q5 6 6 16.5t1 58.5v499 l-221 -643h-52l-227 633v-416q0 -67 5 -93t21 -43q24 -25 84 -27v-54h-285z" />
<glyph unicode="N" horiz-adv-x="833" d="M16 1v54q28 1 42 3.5t29.5 11t22 26t10.5 46.5t4 75v394q-38 54 -106 56v55h252l386 -452v235q0 66 -5 92.5t-21 43.5q-24 26 -82 27v54h285v-54q-60 -2 -84 -27q-16 -17 -21 -43t-5 -93v-512h-67l-465 553v-329q0 -66 5 -92t21 -43q23 -24 84 -27v-54h-285z" />
<glyph unicode="O" horiz-adv-x="833" d="M39 350q0 162 106 274.5t272 112.5q164 0 270.5 -112t106.5 -274q0 -157 -104.5 -261.5t-277.5 -104.5q-163 0 -268 103t-105 262zM239 369q0 -151 44 -241.5t135 -90.5q86 0 131 80.5t45 232.5q0 155 -44.5 245t-131.5 90q-179 0 -179 -316z" />
<glyph unicode="P" horiz-adv-x="759" d="M24 0v54h15q69 0 82 14q5 7 6 17t1 59v433q0 49 -1 59t-6 17q-13 14 -82 14h-15v55h397q160 0 237 -48.5t77 -152.5q0 -211 -315 -211h-112v-166q0 -49 1 -59t6 -17q13 -14 83 -14h22v-54h-396zM308 365h58q97 0 136.5 35.5t39.5 121.5q0 75 -34 110t-105 35h-40 q-34 0 -44.5 -11.5t-10.5 -48.5v-242z" />
<glyph unicode="Q" horiz-adv-x="833" d="M38 363q0 159 108.5 266.5t269.5 107.5q156 0 265 -109t109 -265q0 -97 -45 -181.5t-125 -137.5q21 -79 40.5 -109t44.5 -30q23 0 34 17.5t15 59.5h54q0 -73 -48 -121.5t-124 -48.5q-74 0 -119 40t-45 93v45q-30 -5 -63 -5q-155 0 -263 110t-108 268zM238 379 q0 -125 21 -190q39 101 144 101q117 0 162 -115q25 66 25 195q0 141 -43 228t-133 87q-176 0 -176 -306zM299 132q0 -43 31 -69t81 -26q31 0 63 16q3 33 3 47q0 64 -23 98.5t-67 34.5q-39 0 -63.5 -28.5t-24.5 -72.5z" />
<glyph unicode="R" horiz-adv-x="815" d="M20 1v54h15q69 0 82 14q5 7 6 17t1 59v433q0 49 -1 59t-6 17q-13 14 -82 14h-15v54h427q140 0 197 -36q81 -53 81 -145q0 -75 -48 -117.5t-152 -62.5q65 -21 96 -58t44 -106l7 -38q9 -62 16.5 -76t28.5 -14q44 0 46 95h54q0 -81 -45 -130t-125 -49q-65 0 -106.5 30.5 t-53.5 88.5q-7 37 -14 125q-6 74 -30 96t-83 22h-56v-202q0 -49 1 -59t6 -17q13 -14 83 -14h26v-54h-400zM304 402h55q100 0 137.5 29t37.5 105q0 68 -32.5 100t-102.5 32h-24q-48 0 -59.5 -10.5t-11.5 -53.5v-202z" />
<glyph unicode="S" horiz-adv-x="667" d="M51 276h51q41 -113 111.5 -176t155.5 -63q65 0 104.5 32t39.5 85q0 56 -44 80q-28 15 -108 30l-62 12q-118 22 -182.5 84t-64.5 154q0 100 71.5 161.5t187.5 61.5q100 0 180 -54l52 46h45l13 -259h-53q-89 215 -246 215q-59 0 -97 -29.5t-38 -75.5q0 -62 68 -86 q25 -9 102 -24l48 -11q130 -29 189 -85t59 -151q0 -105 -73.5 -171.5t-190.5 -66.5q-116 0 -205 67l-62 -59h-45z" />
<glyph unicode="T" horiz-adv-x="722" d="M15 451l15 271h662l15 -271h-53q-20 109 -59 160q-46 59 -108 59q-22 0 -29 -7.5t-7 -33.5v-485q0 -48 1 -58.5t6 -16.5q12 -15 83 -15h22v-54h-404v54h22q71 0 83 15q5 6 6 16.5t1 58.5v485q0 26 -7 33.5t-29 7.5q-69 0 -116 -71q-34 -49 -51 -148h-53z" />
<glyph unicode="U" horiz-adv-x="833" d="M15 668v54h389v-54h-15q-71 0 -83 -15q-5 -6 -6 -16.5t-1 -58.5v-320q0 -114 39 -156t122 -42q126 0 170 95q17 37 17 149v201q0 67 -5 93t-21 43q-24 26 -82 27v54h285v-54q-60 -2 -84 -27q-16 -17 -21 -43.5t-5 -92.5v-201q0 -88 -7.5 -131t-28.5 -77 q-37 -58 -97.5 -84.5t-156.5 -26.5q-216 0 -279 115q-26 48 -26 161v317q0 48 -1 58.5t-6 16.5q-12 15 -82 15h-15z" />
<glyph unicode="V" horiz-adv-x="759" d="M-18 668v54h362v-54h-21q-62 0 -62 -25q0 -9 9 -33l159 -404l142 356q9 22 9 38q0 68 -97 68v54h295v-54q-89 -9 -138 -127l-229 -556h-88l-243 614q-17 43 -35.5 56t-62.5 13z" />
<glyph unicode="W" horiz-adv-x="981" d="M6 668v54h310v-54q-35 -2 -47 -7t-12 -18q0 -11 8 -34l116 -358l80 251l-36 113q-10 32 -22.5 41.5t-41.5 11.5v54h296v-54q-36 -2 -47.5 -7.5t-11.5 -19.5q0 -9 6 -27l107 -356l87 285q13 43 13 61q0 31 -21 47t-69 17v54h252v-54q-45 -9 -65.5 -34.5t-42.5 -99.5 l-174 -549h-73l-125 407l-132 -407h-75l-204 625q-12 36 -27 47t-49 11z" />
<glyph unicode="X" horiz-adv-x="722" d="M-12 0v54q44 2 72.5 19.5t71.5 70.5l147 181l-205 292q-21 30 -37 39.5t-49 11.5v54h358v-54q-44 -2 -56 -6t-12 -18q0 -12 10 -26l105 -151l70 86q34 41 34 64q0 51 -96 51v54h308v-54q-40 -4 -70 -21t-62 -56l-146 -178l177 -258q46 -67 66.5 -83t60.5 -18v-54h-360v54 q37 1 51.5 6t14.5 18q0 14 -13 34l-109 156l-88 -112q-20 -25 -20 -50q0 -26 25.5 -38t82.5 -14v-54h-331z" />
<glyph unicode="Y" horiz-adv-x="722" d="M-12 668v54h360v-54h-16q-56 0 -56 -22q0 -12 12 -31l132 -219l100 178q12 20 14 46q0 22 -20 35t-53 13h-21v54h295v-54q-81 -6 -134 -93l-150 -257v-174q0 -48 1 -58.5t6 -16.5q12 -15 83 -15h22v-54h-404v54h22q71 0 83 15q5 6 6 16.5t1 58.5v161l-204 327 q-13 22 -29.5 29t-49.5 7z" />
<glyph unicode="Z" horiz-adv-x="667" d="M24 0v58l401 609h-74q-80 0 -122 -17.5t-75 -63.5q-31 -42 -54 -116h-51l12 252h573v-56l-401 -611h89q91 0 130 20q48 24 82 76.5t47 124.5h53l-16 -276h-594z" />
<glyph unicode="[" horiz-adv-x="389" d="M84 -108v830h255v-50h-132v-730h132v-50h-255z" />
<glyph unicode="\" horiz-adv-x="606" d="M50 737h74l431 -737h-74z" />
<glyph unicode="]" horiz-adv-x="389" d="M31 -58h132v730h-132v50h255v-830h-255v50z" />
<glyph unicode="^" horiz-adv-x="606" d="M52 318l209 404h85l208 -404h-119l-131 250l-133 -250h-119z" />
<glyph unicode="_" horiz-adv-x="500" d="M0 -58h500v-90h-500v90z" />
<glyph unicode="`" horiz-adv-x="333" d="M2 674q0 21 16.5 35.5t40.5 14.5q22 0 36.5 -9.5t40.5 -41.5l113 -138h-64l-147 87q-36 21 -36 52z" />
<glyph unicode="a" d="M36 102q0 71 60 107t230 73q12 1 33 7v52q0 52 -18.5 73.5t-63.5 21.5q-30 0 -52 -9.5t-22 -22.5l11 -22q12 -21 12 -33q0 -28 -23.5 -46.5t-58.5 -18.5t-58 21.5t-23 53.5q0 59 62.5 94t165.5 35q114 0 169.5 -38.5t55.5 -131.5v-176q0 -44 5.5 -58t21.5 -14q5 0 19 7 t20 7q15 0 15 -16q0 -32 -33.5 -57.5t-76.5 -25.5q-79 0 -106 71q-40 -39 -83 -55t-108 -16q-73 0 -113.5 31t-40.5 86zM203 123q0 -32 17.5 -51t46.5 -19q42 0 67 34t25 92v56l-53 -12q-103 -23 -103 -100z" />
<glyph unicode="b" horiz-adv-x="648" d="M0 671v51l240 15v-324q59 75 155 75q95 0 156 -68t61 -175q0 -116 -71 -188t-185 -72q-106 0 -173 81l-65 -80h-49q14 77 14 220v372q0 67 -9 80t-55 13h-19zM239 212q0 -85 26 -130t75 -45q99 0 99 196q0 180 -94 180q-106 0 -106 -201z" />
<glyph unicode="c" horiz-adv-x="556" d="M31 229q0 113 80.5 186t205.5 73q91 0 145 -37t54 -99q0 -38 -24.5 -61.5t-65.5 -23.5q-36 0 -59 20.5t-23 52.5q0 23 21 49q11 13 11 19q0 12 -15.5 20t-37.5 8q-56 0 -87.5 -50t-31.5 -139q0 -93 33.5 -143.5t94.5 -50.5q51 0 84.5 30t58.5 94l52 -17 q-55 -175 -227 -175q-121 0 -195 67t-74 177z" />
<glyph unicode="d" horiz-adv-x="667" d="M37 229q0 109 66 184t162 75q91 0 146 -67v157q0 67 -9 80t-55 13h-32v51l253 15v-615q0 -39 12 -50q8 -7 47 -7h27v-54l-234 -11v72q-59 -87 -164 -87q-98 0 -158.5 67.5t-60.5 176.5zM210 231q0 -85 26 -131.5t73 -46.5q46 0 75 51t29 133q0 83 -28 133t-74 50 q-48 0 -74.5 -50t-26.5 -139z" />
<glyph unicode="e" horiz-adv-x="574" d="M32 232q0 109 76.5 182.5t192.5 73.5q109 0 174 -66t65 -178v-16h-335q0 -91 37 -133t99 -42q49 0 84.5 26.5t65.5 84.5l49 -20q-65 -159 -238 -159q-123 0 -196.5 69t-73.5 178zM206 283h150q15 0 21 7t6 25q0 121 -79 121q-45 0 -71.5 -41t-26.5 -112z" />
<glyph unicode="f" horiz-adv-x="389" d="M14 413v60h87v13q0 111 60 179t158 68q62 0 103.5 -31t41.5 -78q0 -35 -23 -58.5t-57 -23.5q-32 0 -53.5 20t-21.5 49q0 15 15 38t15 24q0 8 -16 8q-15 0 -30.5 -11.5t-22.5 -28.5q-12 -26 -12 -111v-57h125v-60h-125v-316q0 -30 13.5 -38.5t61.5 -8.5h18v-50h-330v50h14 q47 0 56.5 7.5t9.5 39.5v316h-87z" />
<glyph unicode="g" d="M30 -104q0 35 28 58t78 31q-91 25 -91 93q0 77 116 98q-110 38 -110 141q0 74 66.5 122.5t169.5 48.5q76 0 134 -29q63 79 128 79q33 0 53.5 -18t20.5 -47q0 -27 -18 -45.5t-44 -18.5q-20 0 -37 14t-17 31v4q0 5 -5 5q-17 0 -37 -28q33 -27 46.5 -52.5t13.5 -60.5 q0 -77 -59.5 -120t-173.5 -43h-18q-43 0 -59.5 -7t-16.5 -26q0 -18 12.5 -23.5t52.5 -5.5h69q126 0 179 -28.5t53 -104.5q0 -80 -75 -123t-215 -43q-244 0 -244 98zM160 -92q0 -28 31.5 -43t89.5 -15q153 0 153 61q0 17 -4.5 25.5t-28.5 14.5t-73 6h-131q-37 -16 -37 -49z M213 326q0 -119 76 -119q35 0 54.5 30t19.5 83q0 116 -73 116q-77 0 -77 -110z" />
<glyph unicode="h" horiz-adv-x="685" d="M16 671v51l240 15v-341q60 92 170 92q81 0 123 -48q38 -41 38 -129v-213q0 -32 9.5 -39.5t55.5 -7.5h14v-51h-305v51q44 0 56.5 8.5t12.5 37.5v200q0 98 -71 98q-28 0 -52 -16t-36 -43q-15 -33 -15 -95v-143q0 -31 12 -39t56 -8v-51h-305v51h14q47 0 56.5 7.5t9.5 38.5 v477q-1 71 -9.5 84t-54.5 13h-19z" />
<glyph unicode="i" horiz-adv-x="370" d="M28 0v51h14q45 0 54.5 7.5t9.5 39.5v223q0 67 -9 80.5t-55 13.5h-14v51l235 7v-376q0 -31 9 -38.5t53 -7.5h16v-51h-313zM114 630q0 29 21 49.5t50 20.5t49.5 -21t20.5 -49q0 -30 -21 -50.5t-50 -20.5t-49.5 21t-20.5 50z" />
<glyph unicode="j" horiz-adv-x="352" d="M-82 -102q0 32 22 53.5t56 21.5q28 0 46.5 -19t18.5 -48q0 -31 -29 -50q8 -11 26 -11q53 0 53 99v385q0 60 -10 73t-54 13h-32v51l253 7v-364q0 -143 -35 -210q-23 -46 -70.5 -73.5t-104.5 -27.5q-61 0 -100.5 28t-39.5 72zM113 630q0 29 21 49.5t50 20.5q28 0 49 -21 t21 -49q0 -30 -21 -50.5t-50 -20.5t-49.5 21t-20.5 50z" />
<glyph unicode="k" horiz-adv-x="667" d="M12 671v51l240 15v-491l124 108q25 22 25 40q0 28 -60 28h-12v51h294v-51h-23q-53 0 -108 -47l-77 -64l157 -196q33 -43 47.5 -53.5t40.5 -10.5v-51h-306v51h13q36 0 36 20q0 15 -13 31l-92 111l-46 -41v-74q0 -30 12.5 -38.5t55.5 -8.5v-51h-305v51h14q47 0 56.5 7.5 t9.5 38.5v481q0 67 -9 80t-55 13h-19z" />
<glyph unicode="l" horiz-adv-x="352" d="M16 671v51l240 15v-640q0 -31 15 -39q12 -7 46 -7h14v-51h-312v51h14q47 0 56.5 7.5t9.5 38.5v481q0 67 -9 80t-55 13h-19z" />
<glyph unicode="m" horiz-adv-x="963" d="M20 0v51h15q46 0 55.5 7.5t9.5 39.5v223q0 67 -9 80.5t-55 13.5h-16v51l228 7v-79q60 94 160 94q50 0 87.5 -24t53.5 -66q35 48 72 69t85 21q67 0 112 -41.5t45 -103.5v-246q0 -31 9.5 -38.5t55.5 -7.5h14v-51h-294v51q38 1 48 9t10 37v209q0 89 -55 89q-42 0 -66.5 -32 t-24.5 -85v-181q0 -29 10 -37t48 -9v-51h-272v51q37 1 47 9t10 38v204q0 49 -13 71t-42 22q-41 0 -66 -32t-25 -85v-181q0 -29 10 -37t48 -9v-51h-295z" />
<glyph unicode="n" horiz-adv-x="685" d="M20 0v51h14q46 0 55.5 7.5t9.5 39.5v220q0 70 -9 83.5t-55 13.5h-15v51l229 7v-88q37 56 78 79.5t100 23.5q82 0 124 -48q38 -41 38 -129v-213q0 -32 9.5 -39.5t55.5 -7.5h14v-51h-305v51q44 0 56.5 8.5t12.5 37.5v200q0 98 -73 98q-27 0 -51 -16t-36 -43 q-16 -32 -16 -95v-144q0 -29 12.5 -37.5t56.5 -8.5v-51h-305z" />
<glyph unicode="o" d="M31 236q0 108 79 180t198 72q114 0 192.5 -73.5t78.5 -180.5t-78.5 -178t-196.5 -71t-195.5 71t-77.5 180zM204 236q0 -199 101 -199q48 0 74.5 51.5t26.5 146.5q0 201 -100 201q-102 0 -102 -200z" />
<glyph unicode="p" horiz-adv-x="667" d="M18 -152h14q46 0 55.5 7.5t9.5 39.5v423q-1 71 -9.5 84t-54.5 13h-15v51l236 7v-64q34 43 69.5 61t86.5 18q96 0 159 -68t63 -171q0 -112 -67.5 -188t-168.5 -76q-83 0 -142 65v-155q0 -31 12 -39t60 -8h15v-50h-323v50zM253 229q0 -85 27.5 -130.5t77.5 -45.5 q47 0 74 47.5t27 131.5q0 181 -93 181q-55 0 -84 -47.5t-29 -136.5z" />
<glyph unicode="q" horiz-adv-x="648" d="M34 232q0 110 72.5 183t182.5 73q109 0 174 -81l64 80h49q-15 -119 -15 -215v-377q0 -32 9.5 -39.5t55.5 -7.5h14v-50h-323v50h14q48 0 60.5 8.5t12.5 38.5v163q-63 -73 -154 -73q-44 0 -86.5 18.5t-68.5 49.5q-28 31 -44.5 80t-16.5 99zM207 236q0 -183 97 -183 q48 0 75.5 53.5t27.5 146.5q0 77 -17 119q-12 29 -34.5 46.5t-47.5 17.5q-101 0 -101 -200z" />
<glyph unicode="r" horiz-adv-x="519" d="M18 0v51h14q46 0 55.5 7.5t9.5 39.5v220q0 70 -9 83.5t-55 13.5h-15v51l223 7v-121q53 136 166 136q48 0 79 -28.5t31 -72.5q0 -37 -24.5 -61.5t-61.5 -24.5q-32 0 -53.5 21t-21.5 53q0 23 17 47q-47 -14 -76 -65q-42 -74 -42 -193v-66q0 -31 13.5 -39t61.5 -8h22v-51 h-334z" />
<glyph unicode="s" horiz-adv-x="500" d="M38 175h45q70 -138 182 -138q40 0 63 16t23 43q0 43 -70 58l-73 16q-84 18 -124 57q-42 40 -42 99q0 71 54.5 116.5t138.5 45.5q69 0 124 -32l37 22h43l4 -158h-47q-37 61 -74.5 88.5t-85.5 27.5q-37 0 -60.5 -16.5t-23.5 -41.5q0 -19 12.5 -29t49.5 -20l90 -22 q54 -13 76.5 -23t42.5 -27q43 -38 43 -102q0 -75 -56 -122.5t-145 -47.5q-82 0 -141 35l-39 -18h-42z" />
<glyph unicode="t" horiz-adv-x="426" d="M23 413v52q141 16 165 206h63v-198h130v-60h-130v-257q0 -51 7.5 -68.5t29.5 -17.5q63 0 63 116h53q1 -10 1 -23q0 -76 -44 -127t-125 -51q-88 0 -121 55q-13 21 -17 47t-4 87v239h-71z" />
<glyph unicode="u" horiz-adv-x="685" d="M13 415v51l237 7v-288q0 -57 16.5 -82t54.5 -25q28 0 52.5 15.5t36.5 41.5q17 33 17 103v80q0 70 -9 83.5t-55 13.5h-16v51l237 7v-365q0 -27 10 -35t45 -8h28v-54l-233 -11v82q-43 -53 -83.5 -75t-93.5 -22q-106 0 -148 86q-10 21 -13 42.5t-3 77.5v127q-1 71 -9.5 84 t-54.5 13h-16z" />
<glyph unicode="v" d="M12 423v50h282v-50q-52 0 -52 -23q0 -10 8 -26l107 -234l73 184q18 44 18 60q0 21 -18 30t-59 9v50h227v-50h-9q-29 0 -46.5 -18t-39.5 -70l-154 -349h-85l-184 384q-16 33 -28 42t-40 11z" />
<glyph unicode="w" horiz-adv-x="889" d="M19 422v51h276v-51q-30 -1 -39.5 -5.5t-9.5 -18.5q0 -5 7 -23l87 -221l72 170l-25 60q-10 23 -21.5 30.5t-39.5 7.5v51h279v-51h-12q-28 0 -38.5 -5.5t-10.5 -17.5q0 -9 6 -22l92 -223l70 170q14 34 14 52q0 46 -64 46h-12v51h226v-51q-34 -2 -53 -19.5t-41 -65.5 l-157 -351h-75l-107 263l-114 -263h-76l-163 380q-14 32 -28 43.5t-43 12.5z" />
<glyph unicode="x" d="M13 0v51q42 1 89 46l121 115l-143 171q-19 23 -31.5 30t-35.5 9v51h296v-51h-11q-33 0 -33 -16q0 -9 11 -21l57 -69l51 49q21 20 21 34q0 23 -40 23h-23v51h246v-51q-58 0 -114 -52l-104 -98l138 -164q30 -37 46 -46.5t44 -10.5v-51h-314v51h12q35 0 35 23q0 10 -11 22 l-59 71l-60 -59q-14 -14 -14 -29q0 -28 47 -28h13v-51h-234z" />
<glyph unicode="y" d="M10 -114q0 37 25 62t62 25q33 0 54 -19t21 -49q0 -9 -4.5 -20.5t-4.5 -16.5q0 -6 9 -6q42 -1 85 79l23 43l-205 398q-13 25 -23.5 32t-37.5 8v51h284v-51h-18q-35 0 -35 -21q0 -11 8 -27l106 -216l83 183q9 22 9 41q0 40 -63 40h-15v51h225v-51q-31 -2 -50.5 -19.5 t-40.5 -62.5l-175 -377q-41 -89 -88 -129t-110 -40q-56 0 -90 25.5t-34 66.5z" />
<glyph unicode="z" horiz-adv-x="537" d="M35 0v44l272 379h-51q-52 0 -72.5 -5.5t-37.5 -22.5q-19 -20 -44 -102h-51l12 180h432v-48l-270 -375h62q51 0 70.5 7t39.5 31q30 37 49 102h49l-10 -190h-450z" />
<glyph unicode="{" horiz-adv-x="389" d="M84 285v44q20 5 27.5 7t19 8t15 13.5t8 22t5.5 33.5t1 49v110q0 87 30.5 118.5t100.5 31.5h52v-46q-33 -3 -46.5 -18.5t-13.5 -51.5v-174q0 -58 -21.5 -84t-80.5 -41q59 -15 80.5 -41t21.5 -84v-118q0 -65 1 -77.5t8 -23.5q13 -21 51 -25v-46h-52q-70 0 -100.5 31.5 t-30.5 118.5v110q0 50 -2 65.5t-10 29.5q-9 15 -22 22.5t-42 15.5z" />
<glyph unicode="|" horiz-adv-x="606" d="M253 -108v830h100v-830h-100z" />
<glyph unicode="}" horiz-adv-x="389" d="M31 -62q39 4 52 25q7 11 8.5 23.5t1.5 77.5v118q0 58 21.5 84t80.5 41q-59 15 -80.5 41t-21.5 84v174q0 35 -14 51t-48 19v46h54q70 0 100.5 -31.5t30.5 -118.5v-110q0 -44 2.5 -68t13.5 -37.5t21 -17t37 -10.5v-44q-35 -9 -47.5 -17t-19.5 -33t-7 -83v-110 q0 -87 -30.5 -118.5t-100.5 -31.5h-54v46z" />
<glyph unicode="~" horiz-adv-x="606" d="M51 222q60 113 144 113q24 0 90 -23l53 -19q53 -20 66 -19q17 0 31.5 11t35.5 41l84 -53q-62 -113 -144 -113q-28 0 -90 23l-53 19q-57 20 -66 19q-17 0 -31.5 -11t-35.5 -41z" />
<glyph unicode="&#xa1;" horiz-adv-x="296" d="M52 -164q0 29 5 52t29 106q27 93 33 251h53q5 -109 14 -165t39 -155q14 -47 14 -89q0 -47 -25 -73.5t-69 -26.5t-68.5 26.5t-24.5 73.5zM52 394q0 39 27.5 66.5t67.5 27.5q37 0 64.5 -28t27.5 -66t-27.5 -65.5t-65.5 -27.5q-39 0 -66.5 27.5t-27.5 65.5z" />
<glyph unicode="&#xa2;" horiz-adv-x="574" d="M36 229q0 111 81 185t203 74q50 0 95 -14l51 93h56l-62 -113q63 -39 63 -101q0 -38 -24.5 -63t-62.5 -25q-40 0 -64 26l-113 -208q29 -29 80 -29q106 0 143 120l52 -16q-31 -89 -88.5 -130.5t-150.5 -41.5q-48 0 -82 11l-57 -104h-58l67 123q-62 34 -95.5 89.5 t-33.5 123.5zM209 241q0 -55 20 -108l132 242q1 2 7 8.5t11 14t5 12.5q0 11 -15.5 18.5t-37.5 7.5q-56 0 -89 -52.5t-33 -142.5z" />
<glyph unicode="&#xa3;" horiz-adv-x="574" d="M19 77q0 41 30.5 69t76.5 28q31 0 70 -13q1 10 1 23q0 27 -11.5 67.5t-27.5 66.5h-124v60h102q-24 71 -24 122q0 90 66 149t167 59q86 0 142 -45t56 -115q0 -43 -27 -71t-68 -28q-34 0 -56.5 22t-22.5 55q0 41 40 62q24 13 24 24q0 18 -22.5 31t-53.5 13q-41 0 -66.5 -25 t-25.5 -65q0 -52 39 -188h155v-60h-146q4 -31 4 -45q0 -60 -37 -134q56 -20 112 -20q47 0 75 19t43 62l51 -14q-18 -97 -63.5 -148.5t-113.5 -51.5q-77 0 -153 64q-44 -64 -114 -64q-44 0 -71 25.5t-27 65.5zM69 79q0 -18 12.5 -29.5t31.5 -11.5q46 0 69 54q-34 30 -66 30 q-21 0 -34 -12t-13 -31z" />
<glyph unicode="&#xa4;" horiz-adv-x="574" d="M33 526l78 78l43 -43q59 38 133 38q67 0 132 -38l43 43l78 -78l-43 -42q38 -62 38 -134q0 -69 -38 -132l43 -43l-78 -78l-43 43q-64 -38 -132 -38q-70 0 -133 38l-43 -42l-77 77l42 43q-38 61 -38 132q0 76 38 133zM158 351q0 -52 37.5 -90t89.5 -38q55 0 92.5 37 t37.5 91q0 52 -37.5 89.5t-90.5 37.5t-91 -37.5t-38 -89.5z" />
<glyph unicode="&#xa5;" horiz-adv-x="574" d="M3 668v54h270v-54h-6q-26 0 -26 -19q0 -9 11 -34l93 -219l72 178q10 26 10 47t-11.5 34t-30.5 13h-20v54h206v-54q-56 -6 -91 -93l-87 -216h93v-60h-110v-66h110v-60h-110v-29q0 -67 5 -75q8 -15 58 -15h15v-54h-335v54h15q49 0 57 15q5 8 5 75v29h-111v60h111v66h-111 v60h88l-116 273q-10 21 -21 28.5t-33 7.5z" />
<glyph unicode="&#xa6;" horiz-adv-x="606" d="M253 -108v332h100v-332h-100zM253 390v332h100v-332h-100z" />
<glyph unicode="&#xa7;" horiz-adv-x="500" d="M63 335q0 54 31.5 89.5t82.5 39.5q-43 39 -57 64.5t-14 64.5q0 65 40.5 104.5t108.5 39.5q59 0 95 -28t36 -75q0 -25 -16 -41t-41 -16q-24 0 -40 14.5t-16 35.5q0 10 13 29.5t13 24.5q0 10 -13.5 17t-32.5 7q-29 0 -50.5 -17.5t-21.5 -42.5q0 -34 56 -80l106 -87 q95 -79 95 -165q0 -52 -30.5 -89t-74.5 -37h-6q41 -37 56 -66t15 -69q0 -63 -43 -101t-114 -38q-61 0 -101.5 28.5t-40.5 71.5q0 29 17.5 47.5t44.5 18.5q23 0 38.5 -15.5t15.5 -37.5q0 -12 -14.5 -31t-14.5 -22q0 -12 15 -20t37 -8q35 0 57.5 17t22.5 45q0 29 -27 56 q-6 6 -54 47l-113 98q-61 52 -61 127zM138 372q0 -17 8.5 -31t32.5 -35l54 -48q36 -33 74 -33q23 0 39.5 15.5t16.5 37.5q0 29 -43 66l-51 44q-42 37 -74 37q-24 0 -40.5 -15.5t-16.5 -37.5z" />
<glyph unicode="&#xa8;" horiz-adv-x="333" d="M-11 631q0 29 21 49.5t50 20.5q28 0 49 -20.5t21 -49.5q0 -30 -21 -50.5t-50 -20.5t-49.5 21t-20.5 50zM204 631q0 29 21 49.5t50 20.5t49.5 -20.5t20.5 -49.5q0 -30 -21 -50.5t-50 -20.5t-49.5 21t-20.5 50z" />
<glyph unicode="&#xa9;" horiz-adv-x="747" d="M21 339q0 146 103.5 250t249.5 104t250 -104t104 -250t-104 -249.5t-250 -103.5t-249.5 103.5t-103.5 249.5zM69 339q0 -127 89 -216t216 -89t216.5 89t89.5 216t-89.5 216.5t-216.5 89.5t-216 -89.5t-89 -216.5zM188 335q0 83 59 135.5t149 52.5q50 0 94 -24l27 22h30 l5 -143l-38 -4q-32 113 -114 113q-86 0 -86 -143q0 -75 22 -111t71 -36q43 0 72 26.5t38 74.5l44 -9q-30 -133 -172 -133q-95 0 -150 55q-51 51 -51 124z" />
<glyph unicode="&#xaa;" horiz-adv-x="367" d="M1 505q0 51 69 79q36 14 140 33v31q0 31 -12 44t-40 13q-19 0 -33.5 -5.5t-14.5 -13.5q0 -1 7 -14t7 -19q0 -16 -15.5 -27.5t-37.5 -11.5q-23 0 -38 13t-15 32q0 35 40.5 56.5t107.5 21.5q74 0 110.5 -23t36.5 -79v-106q0 -26 3.5 -34t14.5 -8q3 0 12.5 3.5t12.5 3.5 q9 0 9 -9q0 -20 -21.5 -35t-49.5 -15q-50 0 -69 40q-54 -40 -124 -40q-47 0 -73.5 18.5t-26.5 51.5zM9 293v60h326v-60h-326zM111 518q0 -19 11 -30.5t30 -11.5q26 0 42 20.5t16 54.5v34l-34 -7q-65 -14 -65 -60z" />
<glyph unicode="&#xab;" horiz-adv-x="500" d="M49 252v14l153 133q19 20 29 20q4 0 8 -4t4 -8q0 -8 -19 -41l-64 -107l64 -107q19 -32 19 -40q0 -4 -4.5 -8t-8.5 -4q-8 0 -28 20zM248 252v14l153 133q19 20 29 20q4 0 8 -4t4 -8q0 -8 -19 -41l-64 -107l64 -107q19 -32 19 -40q0 -4 -4.5 -8t-8.5 -4q-8 0 -28 20z" />
<glyph unicode="&#xac;" horiz-adv-x="606" d="M44 290v100h518v-230h-100v130h-418z" />
<glyph unicode="&#xad;" horiz-adv-x="333" d="M42 180v130h249v-130h-249z" />
<glyph unicode="&#xae;" horiz-adv-x="747" d="M21 339q0 146 103.5 250t249.5 104t250 -104t104 -250t-104 -249.5t-250 -103.5t-249.5 103.5t-103.5 249.5zM69 339q0 -127 89 -216t216 -89t216.5 89t89.5 216t-89.5 216.5t-216.5 89.5t-216 -89.5t-89 -216.5zM160 166v38h10q30 0 33 3t3 33v205q0 30 -3 33 q-3 4 -33 4h-10v37h225q77 0 110 -19q45 -26 45 -72q0 -67 -91 -87q49 -20 60 -75l4 -18q4 -28 5.5 -33t6.5 -5q21 0 21 42h42q1 -42 -26 -67.5t-73 -25.5q-80 0 -95 61q-4 28 -7 60q-2 31 -12 40.5t-36 9.5h-18v-90q0 -30 3 -33t33 -3h17v-38h-214zM321 368h18 q46 0 63 12.5t17 44.5q0 57 -59 57h-13q-18 0 -22 -4.5t-4 -20.5v-89z" />
<glyph unicode="&#xaf;" horiz-adv-x="333" d="M-5 590v80h344v-80h-344z" />
<glyph unicode="&#xb0;" horiz-adv-x="400" d="M50 534q0 64 44.5 108t108.5 44q62 0 104.5 -44t42.5 -109q0 -64 -43.5 -108.5t-106.5 -44.5t-106.5 44.5t-43.5 109.5zM106 533q0 -40 28 -68t66 -28q39 0 66 28t27 68t-26.5 68t-64.5 28q-40 0 -68 -28t-28 -68z" />
<glyph unicode="&#xb1;" horiz-adv-x="606" d="M44 0v100h518v-100h-518zM44 300v100h209v209h100v-209h209v-100h-209v-110h-100v110h-209z" />
<glyph unicode="&#xb2;" horiz-adv-x="344" d="M5 281v32q42 56 126 140q50 49 68 80t18 66q0 67 -67 67q-22 0 -42.5 -11.5t-20.5 -24.5q0 -5 8 -8q46 -17 46 -56q0 -23 -16 -37.5t-41 -14.5q-29 0 -47 19.5t-18 51.5q0 52 45 87.5t110 35.5q67 0 112.5 -33t45.5 -82q0 -51 -32.5 -85t-128.5 -92q-30 -19 -55 -38 l147 1q13 1 17.5 6.5t9.5 29.5l7 32h41l-16 -166q-40 2 -41 2h-240z" />
<glyph unicode="&#xb3;" horiz-adv-x="344" d="M8 378q0 27 17 43.5t43 16.5q25 0 41.5 -15t16.5 -37q0 -23 -26 -44q-5 -5 -5 -9q0 -7 17.5 -14t35.5 -7q35 0 54 23.5t19 67.5q0 80 -57 80q-39 -4 -43 -4q-12 0 -19.5 7.5t-7.5 18.5q0 23 26 23q3 0 23 -4t27 -4q44 0 44 80q0 34 -15.5 52.5t-43.5 18.5q-15 0 -29.5 -6 t-14.5 -13q0 2 6.5 -6t13.5 -21t7 -24q0 -23 -15 -37t-39 -14q-25 0 -42.5 16.5t-17.5 40.5q0 43 42 72t105 29q68 0 110.5 -29.5t42.5 -78.5q0 -35 -21 -56t-67 -39q57 -12 78.5 -38t21.5 -66q0 -58 -46 -92t-125 -34q-70 0 -113.5 28.5t-43.5 74.5z" />
<glyph unicode="&#xb4;" horiz-adv-x="333" d="M84 535l113 138q26 32 40.5 41.5t36.5 9.5q24 0 40.5 -14.5t16.5 -35.5q0 -31 -36 -52l-147 -87h-64z" />
<glyph unicode="&#xb5;" horiz-adv-x="685" d="M13 415v51l237 7v-288q0 -57 16.5 -82t54.5 -25q28 0 52.5 15.5t36.5 41.5q17 33 17 103v80q0 70 -9 83.5t-55 13.5h-16v51l237 7v-342q0 -48 7.5 -57t47.5 -9h28v-54l-233 -11v82q-80 -97 -168 -97q-73 0 -113 55q0 -38 2.5 -50t15.5 -43q29 -67 29 -91 q0 -34 -20.5 -54.5t-54.5 -20.5t-55 20t-21 52q0 24 26 91q18 45 18 76v298q-1 71 -9.5 84t-54.5 13h-16z" />
<glyph unicode="&#xb6;" horiz-adv-x="747" d="M35 521q0 98 58.5 149.5t174.5 51.5h445v-55h-20q-26 0 -37.5 -2t-19.5 -12.5t-8 -32.5v-623q0 -49 1 -58t6 -15q12 -14 58 -14h20v-54h-558v54h24q57 0 69 14q4 6 5 15t1 58v328l-9 -1q-94 0 -152 54.5t-58 142.5zM406 -89h70v756h-70v-756z" />
<glyph unicode="&#xb7;" horiz-adv-x="278" d="M45 250q0 39 27.5 66.5t66.5 27.5t66.5 -27.5t27.5 -66.5t-27.5 -66.5t-66.5 -27.5t-66.5 27.5t-27.5 66.5z" />
<glyph unicode="&#xb8;" horiz-adv-x="333" d="M17 -203l18 45q37 -17 63 -17q23 0 36 10.5t13 28.5q0 16 -11 25t-30 9q-12 0 -23 -6l-19 10l47 103h45l-29 -66q26 5 41 5q35 0 59 -21.5t24 -54.5q0 -40 -39 -65t-100 -25q-50 0 -95 19z" />
<glyph unicode="&#xb9;" horiz-adv-x="344" d="M39 284v39h31q43 0 49 7q4 4 4 43v209q0 34 -7 40t-46 6h-30v40q108 1 160 40h26v-335q0 -39 4 -43q6 -7 50 -7h24v-39h-265z" />
<glyph unicode="&#xba;" horiz-adv-x="367" d="M1 585q0 65 51.5 108.5t128.5 43.5q73 0 124.5 -44.5t51.5 -108.5t-51 -106.5t-127 -42.5q-77 0 -127.5 42.5t-50.5 107.5zM16 293v60h326v-60h-326zM111 586q0 -119 67 -119q33 0 51 30.5t18 86.5q0 121 -67 121q-69 0 -69 -119z" />
<glyph unicode="&#xbb;" horiz-adv-x="500" d="M56 112q0 10 19 40l64 107l-64 107q-19 30 -19 41q0 4 4.5 8t8.5 4q8 0 28 -20l154 -133v-14l-154 -132q-20 -20 -29 -20q-4 0 -8 4t-4 8zM256 112q0 10 19 40l64 107l-64 107q-19 30 -19 41q0 4 4.5 8t8.5 4q8 0 28 -20l154 -133v-14l-154 -132q-20 -20 -29 -20 q-4 0 -8 4t-4 8z" />
<glyph unicode="&#xbc;" horiz-adv-x="861" d="M39 284v39h31q43 0 49 7q4 4 4 43v209q0 34 -6.5 39.5t-46.5 6.5h-30v40q108 1 160 40h26v-335q0 -39 4 -43q6 -7 50 -7h24v-39h-265zM178 0l420 722h79l-419 -722h-80zM483 107v49l229 268h48l-4 -93v-177h66v-47h-66v-19q0 -38 4 -42q6 -7 44 -7h11v-39h-221v39h10 q39 0 45 7q4 4 4 42v19h-170zM540 154h113v134z" />
<glyph unicode="&#xbd;" horiz-adv-x="861" d="M39 284v39h31q43 0 49 7q4 4 4 43v209q0 34 -6.5 39.5t-46.5 6.5h-30v40q108 1 160 40h26v-335q0 -39 4 -43q6 -7 50 -7h24v-39h-265zM173 0l420 722h79l-420 -722h-79zM499 -2v32q38 51 126 140q50 49 68 80t18 67q0 32 -17.5 49t-49.5 17q-22 0 -42.5 -11.5 t-20.5 -24.5q0 -5 8 -8q46 -17 46 -56q0 -23 -16 -37.5t-41 -14.5q-29 0 -47 19.5t-18 51.5q0 52 45 87.5t110 35.5q67 0 112.5 -33t45.5 -82q0 -13 -3 -25t-6 -21.5t-11 -20.5t-13 -18t-18 -17.5t-18.5 -15.5t-22 -15.5t-21.5 -14t-24 -15t-24 -14.5q-27 -16 -55 -38h115 l32 1q13 1 16.5 6t10.5 30l7 32h41l-16 -166q-40 2 -41 2h-240z" />
<glyph unicode="&#xbe;" horiz-adv-x="861" d="M8 378q0 27 17 43.5t43 16.5q25 0 41.5 -15t16.5 -37q0 -23 -26 -44q-5 -5 -5 -9q0 -7 17.5 -14t35.5 -7q35 0 54 23.5t19 67.5q0 80 -57 80q-39 -4 -43 -4q-12 0 -19.5 7.5t-7.5 18.5q0 23 26 23q4 0 24.5 -4t25.5 -4q44 0 44 80q0 34 -15.5 52.5t-43.5 18.5 q-15 0 -29.5 -6t-14.5 -13q0 -2 13 -16q14 -16 14 -35q0 -23 -15 -37t-39 -14q-25 0 -42.5 16.5t-17.5 40.5q0 43 42 72t105 29q68 0 110.5 -29.5t42.5 -78.5q0 -60 -68 -87q-2 -1 -3.5 -1.5t-6 -2.5t-10.5 -4q53 -11 73 -32q27 -30 27 -72q0 -58 -46 -92t-125 -34 q-70 0 -113.5 28.5t-43.5 74.5zM202 0l419 722h80l-420 -722h-79zM483 107v49l229 268h48l-4 -93v-177h66v-47h-66v-19q0 -38 4 -42q6 -7 44 -7h11v-39h-221v39h10q39 0 45 7q4 4 4 42v19h-170zM540 154h113v134z" />
<glyph unicode="&#xbf;" horiz-adv-x="500" d="M24 -86q0 77 55 124l93 72q46 36 59 59t15 76h54q3 -24 3 -42q0 -34 -11 -61.5t-52 -101.5q-40 -72 -40 -137q0 -53 24.5 -81.5t69.5 -28.5q23 0 38 7t15 18q0 2 -12.5 14.5t-25.5 32.5t-13 40q0 35 24 57.5t62 22.5q41 0 68 -26.5t27 -66.5q0 -69 -63 -112.5t-162 -43.5 q-105 0 -166.5 48t-61.5 130zM177 394q0 39 27.5 66.5t67.5 27.5q38 0 65.5 -28t27.5 -66q0 -39 -27.5 -66.5t-66.5 -27.5t-66.5 27.5t-27.5 66.5z" />
<glyph unicode="&#xc0;" horiz-adv-x="759" d="M-18 0v54q44 5 76 38.5t66 114.5l227 530h76l257 -620q16 -38 33.5 -49.5t60.5 -13.5v-54h-351v54l17 1q37 2 47.5 6t10.5 18q1 8 -12 41l-38 98h-249l-16 -38q-17 -41 -16 -57q0 -34 23 -50t77 -19v-54h-289zM208 899q0 19 20 32t48 13q27 0 43.5 -8.5t48.5 -37.5 l136 -125h-77l-176 79q-43 19 -43 47zM229 285h198l-97 239z" />
<glyph unicode="&#xc1;" horiz-adv-x="759" d="M-18 0v54q44 5 76 38.5t66 114.5l227 530h76l257 -620q16 -38 33.5 -49.5t60.5 -13.5v-54h-351v54l17 1q37 2 47.5 6t10.5 18q1 8 -12 41l-38 98h-249l-16 -38q-17 -41 -16 -57q0 -34 23 -50t77 -19v-54h-289zM229 285h198l-97 239zM274 773l136 125q32 29 48.5 37.5 t43.5 8.5q28 0 48 -13t20 -32q0 -28 -43 -47l-176 -79h-77z" />
<glyph unicode="&#xc2;" horiz-adv-x="759" d="M-18 0v54q44 5 76 38.5t66 114.5l227 530h76l257 -620q16 -38 33.5 -49.5t60.5 -13.5v-54h-351v54l17 1q37 2 47.5 6t10.5 18q1 8 -12 41l-38 98h-249l-16 -38q-17 -41 -16 -57q0 -34 23 -50t77 -19v-54h-289zM178 779l145 160h131l145 -160h-80l-130 83l-131 -83h-80z M229 285h198l-97 239z" />
<glyph unicode="&#xc3;" horiz-adv-x="759" d="M-18 0v54q44 5 76 38.5t66 114.5l227 530h76l257 -620q16 -38 33.5 -49.5t60.5 -13.5v-54h-351v54l17 1q37 2 47.5 6t10.5 18q1 8 -12 41l-38 98h-249l-16 -38q-17 -41 -16 -57q0 -34 23 -50t77 -19v-54h-289zM200 794q9 59 42.5 97t76.5 38q34 0 96 -30q51 -24 71 -24 q16 0 25.5 10.5t20.5 39.5h49q-7 -58 -43.5 -96.5t-82.5 -38.5q-26 0 -44.5 6t-56.5 27q-39 21 -60 21q-30 0 -44 -50h-50zM229 285h198l-97 239z" />
<glyph unicode="&#xc4;" horiz-adv-x="759" d="M-18 0v54q44 5 76 38.5t66 114.5l227 530h76l257 -620q16 -38 33.5 -49.5t60.5 -13.5v-54h-351v54l17 1q37 2 47.5 6t10.5 18q1 8 -12 41l-38 98h-249l-16 -38q-17 -41 -16 -57q0 -34 23 -50t77 -19v-54h-289zM212 860q0 29 21 49.5t50 20.5t49.5 -21t20.5 -49 q0 -30 -21 -50.5t-50 -20.5t-49.5 21t-20.5 50zM229 285h198l-97 239zM427 860q0 29 21 49.5t50 20.5q28 0 49 -21t21 -49q0 -30 -21 -50.5t-50 -20.5t-49.5 21t-20.5 50z" />
<glyph unicode="&#xc5;" horiz-adv-x="759" d="M-18 0v54q44 5 76 38.5t66 114.5l227 530h76l257 -620q16 -38 33.5 -49.5t60.5 -13.5v-54h-351v54l17 1q37 2 47.5 6t10.5 18q1 8 -12 41l-38 98h-249l-16 -38q-17 -41 -16 -57q0 -34 23 -50t77 -19v-54h-289zM229 285h198l-97 239zM282 875q0 44 32 75.5t76 31.5 t75.5 -31.5t31.5 -75.5q0 -45 -31.5 -76.5t-77.5 -31.5q-43 0 -74.5 32t-31.5 76zM337 874q0 -22 15.5 -38.5t36.5 -16.5q22 0 37.5 16.5t15.5 39.5q0 22 -15.5 38.5t-36.5 16.5q-22 0 -37.5 -16.5t-15.5 -39.5z" />
<glyph unicode="&#xc6;" horiz-adv-x="981" d="M-29 0v54q31 6 52 28.5t50 80.5l197 391q18 38 18 60q0 26 -21 40t-57 14h-30v54h766l6 -260h-52q-24 86 -58 132q-24 33 -66.5 53.5t-88.5 20.5h-21q-45 0 -61 -22q-10 -15 -10 -64v-181h35q42 0 73.5 37.5t39.5 104.5h54v-339h-54q-8 68 -39.5 105.5t-73.5 37.5h-35 v-223q0 -43 15 -56.5t61 -13.5h17q94 0 157 75q39 48 65 140h53l-11 -269h-639v54h31q52 0 64 15q5 6 6 16t1 59v120h-215l-49 -97q-22 -42 -22 -69q0 -20 19 -32t47 -12h28v-54h-252zM227 319h188v328q0 21 -10 21q-5 0 -8 -4t-10 -19z" />
<glyph unicode="&#xc7;" horiz-adv-x="778" d="M40 352q0 168 108 276.5t270 108.5q53 0 93.5 -11.5t89.5 -41.5l54 49h53v-286l-53 -6q-34 125 -90 184.5t-139 59.5q-92 0 -139.5 -79.5t-47.5 -234.5q0 -165 49 -244t151 -79q86 0 144.5 57t77.5 160l62 -15q-51 -256 -301 -265l-22 -48q26 5 41 5q35 0 59 -21.5 t24 -54.5q0 -40 -39 -65t-100 -25q-50 0 -95 19l17 45q38 -17 64 -17q23 0 36 10.5t13 28.5q0 16 -11 25t-30 9q-12 0 -24 -6l-18 10l41 86q-162 11 -250 115t-88 251z" />
<glyph unicode="&#xc8;" horiz-adv-x="759" d="M16 0v54h15q70 0 82 15q5 6 6 16.5t1 58.5v434q0 48 -1 58.5t-6 16.5q-12 15 -82 15h-15v54h671l6 -260h-52q-24 84 -58 132q-54 74 -169 74h-28q-60 0 -76 -22q-10 -15 -10 -64v-181h37q45 0 77.5 37.5t40.5 104.5h54v-339h-54q-8 67 -40.5 104.5t-77.5 37.5h-37v-222 q0 -41 16 -56q9 -9 23 -11.5t51 -2.5h30q91 0 147 51.5t87 163.5h53l-12 -269h-679zM198 899q0 19 20 32t48 13q27 0 43.5 -8.5t48.5 -37.5l136 -125h-77l-176 79q-43 19 -43 47z" />
<glyph unicode="&#xc9;" horiz-adv-x="759" d="M16 0v54h15q70 0 82 15q5 6 6 16.5t1 58.5v434q0 48 -1 58.5t-6 16.5q-12 15 -82 15h-15v54h671l6 -260h-52q-24 84 -58 132q-54 74 -169 74h-28q-60 0 -76 -22q-10 -15 -10 -64v-181h37q45 0 77.5 37.5t40.5 104.5h54v-339h-54q-8 67 -40.5 104.5t-77.5 37.5h-37v-222 q0 -41 16 -56q9 -9 23 -11.5t51 -2.5h30q91 0 147 51.5t87 163.5h53l-12 -269h-679zM265 773l136 125q32 29 48.5 37.5t43.5 8.5q28 0 48 -13t20 -32q0 -28 -43 -47l-176 -79h-77z" />
<glyph unicode="&#xca;" horiz-adv-x="759" d="M16 0v54h15q70 0 82 15q5 6 6 16.5t1 58.5v434q0 48 -1 58.5t-6 16.5q-12 15 -82 15h-15v54h671l6 -260h-52q-24 84 -58 132q-54 74 -169 74h-28q-60 0 -76 -22q-10 -15 -10 -64v-181h37q45 0 77.5 37.5t40.5 104.5h54v-339h-54q-8 67 -40.5 104.5t-77.5 37.5h-37v-222 q0 -41 16 -56q9 -9 23 -11.5t51 -2.5h30q91 0 147 51.5t87 163.5h53l-12 -269h-679zM169 779l145 160h131l145 -160h-80l-130 83l-131 -83h-80z" />
<glyph unicode="&#xcb;" horiz-adv-x="759" d="M16 0v54h15q70 0 82 15q5 6 6 16.5t1 58.5v434q0 48 -1 58.5t-6 16.5q-12 15 -82 15h-15v54h671l6 -260h-52q-24 84 -58 132q-54 74 -169 74h-28q-60 0 -76 -22q-10 -15 -10 -64v-181h37q45 0 77.5 37.5t40.5 104.5h54v-339h-54q-8 67 -40.5 104.5t-77.5 37.5h-37v-222 q0 -41 16 -56q9 -9 23 -11.5t51 -2.5h30q91 0 147 51.5t87 163.5h53l-12 -269h-679zM202 860q0 29 21 49.5t50 20.5t49.5 -21t20.5 -49q0 -30 -21 -50.5t-50 -20.5t-49.5 21t-20.5 50zM417 860q0 29 21 49.5t50 20.5q28 0 49 -21t21 -49q0 -30 -21 -50.5t-50 -20.5t-49.5 21 t-20.5 50z" />
<glyph unicode="&#xcc;" horiz-adv-x="444" d="M28 0v54h15q70 0 82 15q5 6 6 16.5t1 58.5v434q0 48 -1 58.5t-6 16.5q-12 15 -82 15h-15v54h389v-54h-15q-71 0 -83 -15q-5 -6 -6 -16t-1 -59v-434q0 -49 1 -59t6 -16q12 -15 83 -15h15v-54h-389zM41 899q0 19 20 32t48 13q27 0 43.5 -8.5t48.5 -37.5l136 -125h-77 l-176 79q-43 19 -43 47z" />
<glyph unicode="&#xcd;" horiz-adv-x="444" d="M28 0v54h15q70 0 82 15q5 6 6 16.5t1 58.5v434q0 48 -1 58.5t-6 16.5q-12 15 -82 15h-15v54h389v-54h-15q-71 0 -83 -15q-5 -6 -6 -16t-1 -59v-434q0 -49 1 -59t6 -16q12 -15 83 -15h15v-54h-389zM107 773l136 125q32 29 48.5 37.5t43.5 8.5q28 0 48 -13t20 -32 q0 -28 -43 -47l-176 -79h-77z" />
<glyph unicode="&#xce;" horiz-adv-x="444" d="M11 779l145 160h131l145 -160h-80l-130 83l-131 -83h-80zM28 0v54h15q70 0 82 15q5 6 6 16.5t1 58.5v434q0 48 -1 58.5t-6 16.5q-12 15 -82 15h-15v54h389v-54h-15q-71 0 -83 -15q-5 -6 -6 -16t-1 -59v-434q0 -49 1 -59t6 -16q12 -15 83 -15h15v-54h-389z" />
<glyph unicode="&#xcf;" horiz-adv-x="444" d="M28 0v54h15q70 0 82 15q5 6 6 16.5t1 58.5v434q0 48 -1 58.5t-6 16.5q-12 15 -82 15h-15v54h389v-54h-15q-71 0 -83 -15q-5 -6 -6 -16t-1 -59v-434q0 -49 1 -59t6 -16q12 -15 83 -15h15v-54h-389zM45 860q0 29 21 49.5t50 20.5q28 0 49 -21t21 -49q0 -30 -21 -50.5 t-50 -20.5t-49.5 21t-20.5 50zM260 860q0 29 21 49.5t50 20.5t49.5 -21t20.5 -49q0 -30 -21 -50.5t-50 -20.5t-49.5 21t-20.5 50z" />
<glyph unicode="&#xd0;" horiz-adv-x="833" d="M19 0v54h15q70 0 82 15q5 6 6 16.5t1 58.5v195h-104v60h104v179q0 48 -1 58.5t-6 16.5q-12 15 -82 15h-15v54h337q124 0 185 -11t109 -43q143 -93 143 -299q0 -103 -35.5 -182t-102.5 -126q-88 -61 -268 -61h-368zM303 119q0 -40 11.5 -52.5t48.5 -12.5h22q111 0 160 75 t49 240q0 154 -50.5 226.5t-154.5 72.5h-26q-34 0 -47 -11t-13 -49v-209h144v-60h-144v-220z" />
<glyph unicode="&#xd1;" horiz-adv-x="833" d="M16 1v54q28 1 42 3.5t29.5 11t22 26t10.5 46.5t4 75v394q-38 54 -106 56v55h252l386 -452v235q0 66 -5 92.5t-21 43.5q-24 26 -82 27v54h285v-54q-60 -2 -84 -27q-16 -17 -21 -43t-5 -93v-512h-67l-465 553v-329q0 -66 5 -92t21 -43q23 -24 84 -27v-54h-285zM227 794 q9 59 42.5 97t76.5 38q34 0 96 -30q51 -24 71 -24q16 0 25.5 10.5t20.5 39.5h49q-7 -58 -43.5 -96.5t-82.5 -38.5q-26 0 -44.5 6t-56.5 27q-39 21 -60 21q-30 0 -44 -50h-50z" />
<glyph unicode="&#xd2;" horiz-adv-x="833" d="M39 350q0 162 106 274.5t272 112.5q164 0 270.5 -112t106.5 -274q0 -157 -104.5 -261.5t-277.5 -104.5q-163 0 -268 103t-105 262zM235 899q0 19 20 32t48 13q27 0 43.5 -8.5t48.5 -37.5l136 -125h-77l-176 79q-43 19 -43 47zM239 369q0 -151 44 -241.5t135 -90.5 q86 0 131 80.5t45 232.5q0 155 -44.5 245t-131.5 90q-179 0 -179 -316z" />
<glyph unicode="&#xd3;" horiz-adv-x="833" d="M39 350q0 162 106 274.5t272 112.5q164 0 270.5 -112t106.5 -274q0 -157 -104.5 -261.5t-277.5 -104.5q-163 0 -268 103t-105 262zM239 369q0 -151 44 -241.5t135 -90.5q86 0 131 80.5t45 232.5q0 155 -44.5 245t-131.5 90q-179 0 -179 -316zM302 773l136 125 q32 29 48.5 37.5t43.5 8.5q28 0 48 -13t20 -32q0 -28 -43 -47l-176 -79h-77z" />
<glyph unicode="&#xd4;" horiz-adv-x="833" d="M39 350q0 162 106 274.5t272 112.5q164 0 270.5 -112t106.5 -274q0 -157 -104.5 -261.5t-277.5 -104.5q-163 0 -268 103t-105 262zM206 779l145 160h131l145 -160h-80l-130 83l-131 -83h-80zM239 369q0 -151 44 -241.5t135 -90.5q86 0 131 80.5t45 232.5q0 155 -44.5 245 t-131.5 90q-179 0 -179 -316z" />
<glyph unicode="&#xd5;" horiz-adv-x="833" d="M39 350q0 162 106 274.5t272 112.5q164 0 270.5 -112t106.5 -274q0 -157 -104.5 -261.5t-277.5 -104.5q-163 0 -268 103t-105 262zM227 794q9 59 42.5 97t76.5 38q34 0 96 -30q51 -24 71 -24q16 0 25.5 10.5t20.5 39.5h49q-7 -58 -43.5 -96.5t-82.5 -38.5q-26 0 -44.5 6 t-56.5 27q-39 21 -60 21q-30 0 -44 -50h-50zM239 369q0 -151 44 -241.5t135 -90.5q86 0 131 80.5t45 232.5q0 155 -44.5 245t-131.5 90q-179 0 -179 -316z" />
<glyph unicode="&#xd6;" horiz-adv-x="833" d="M39 350q0 162 106 274.5t272 112.5q164 0 270.5 -112t106.5 -274q0 -157 -104.5 -261.5t-277.5 -104.5q-163 0 -268 103t-105 262zM239 369q0 -151 44 -241.5t135 -90.5q86 0 131 80.5t45 232.5q0 155 -44.5 245t-131.5 90q-179 0 -179 -316zM239 860q0 29 21 49.5 t50 20.5q28 0 49 -21t21 -49q0 -30 -21 -50.5t-50 -20.5t-49.5 21t-20.5 50zM454 860q0 29 21 49.5t50 20.5t49.5 -21t20.5 -49q0 -30 -21 -50.5t-50 -20.5t-49.5 21t-20.5 50z" />
<glyph unicode="&#xd7;" horiz-adv-x="606" d="M85 102l147 148l-147 148l70 70l148 -147l148 147l70 -70l-147 -148l147 -148l-70 -70l-148 147l-148 -147z" />
<glyph unicode="&#xd8;" horiz-adv-x="833" d="M39 363q0 160 109.5 267.5t272.5 107.5q106 0 192 -50l53 74h65l-75 -105q64 -52 100.5 -130.5t36.5 -161.5q0 -156 -108.5 -268t-271.5 -112q-114 0 -200 54l-57 -79h-65l79 111q-131 116 -131 292zM239 372q0 -103 19 -179l291 406q-44 87 -132 87t-133 -79.5 t-45 -234.5zM279 132q22 -50 55.5 -72.5t85.5 -22.5q50 0 85 25.5t53.5 74t26.5 105.5t8 131q0 97 -20 168z" />
<glyph unicode="&#xd9;" horiz-adv-x="833" d="M15 668v54h389v-54h-15q-71 0 -83 -15q-5 -6 -6 -16.5t-1 -58.5v-320q0 -114 39 -156t122 -42q126 0 170 95q17 37 17 149v201q0 67 -5 93t-21 43q-24 26 -82 27v54h285v-54q-60 -2 -84 -27q-16 -17 -21 -43.5t-5 -92.5v-201q0 -88 -7.5 -131t-28.5 -77 q-37 -58 -97.5 -84.5t-156.5 -26.5q-216 0 -279 115q-26 48 -26 161v317q0 48 -1 58.5t-6 16.5q-12 15 -82 15h-15zM235 899q0 19 20 32t48 13q27 0 43.5 -8.5t48.5 -37.5l136 -125h-77l-176 79q-43 19 -43 47z" />
<glyph unicode="&#xda;" horiz-adv-x="833" d="M15 668v54h389v-54h-15q-71 0 -83 -15q-5 -6 -6 -16.5t-1 -58.5v-320q0 -114 39 -156t122 -42q126 0 170 95q17 37 17 149v201q0 67 -5 93t-21 43q-24 26 -82 27v54h285v-54q-60 -2 -84 -27q-16 -17 -21 -43.5t-5 -92.5v-201q0 -88 -7.5 -131t-28.5 -77 q-37 -58 -97.5 -84.5t-156.5 -26.5q-216 0 -279 115q-26 48 -26 161v317q0 48 -1 58.5t-6 16.5q-12 15 -82 15h-15zM302 773l136 125q32 29 48.5 37.5t43.5 8.5q28 0 48 -13t20 -32q0 -28 -43 -47l-176 -79h-77z" />
<glyph unicode="&#xdb;" horiz-adv-x="833" d="M15 668v54h389v-54h-15q-71 0 -83 -15q-5 -6 -6 -16.5t-1 -58.5v-320q0 -114 39 -156t122 -42q126 0 170 95q17 37 17 149v201q0 67 -5 93t-21 43q-24 26 -82 27v54h285v-54q-60 -2 -84 -27q-16 -17 -21 -43.5t-5 -92.5v-201q0 -88 -7.5 -131t-28.5 -77 q-37 -58 -97.5 -84.5t-156.5 -26.5q-216 0 -279 115q-26 48 -26 161v317q0 48 -1 58.5t-6 16.5q-12 15 -82 15h-15zM206 779l145 160h131l145 -160h-80l-130 83l-131 -83h-80z" />
<glyph unicode="&#xdc;" horiz-adv-x="833" d="M15 668v54h389v-54h-15q-71 0 -83 -15q-5 -6 -6 -16.5t-1 -58.5v-320q0 -114 39 -156t122 -42q126 0 170 95q17 37 17 149v201q0 67 -5 93t-21 43q-24 26 -82 27v54h285v-54q-60 -2 -84 -27q-16 -17 -21 -43.5t-5 -92.5v-201q0 -88 -7.5 -131t-28.5 -77 q-37 -58 -97.5 -84.5t-156.5 -26.5q-216 0 -279 115q-26 48 -26 161v317q0 48 -1 58.5t-6 16.5q-12 15 -82 15h-15zM239 860q0 29 21 49.5t50 20.5q28 0 49 -21t21 -49q0 -30 -21 -50.5t-50 -20.5t-49.5 21t-20.5 50zM454 860q0 29 21 49.5t50 20.5t49.5 -21t20.5 -49 q0 -30 -21 -50.5t-50 -20.5t-49.5 21t-20.5 50z" />
<glyph unicode="&#xdd;" horiz-adv-x="722" d="M-12 668v54h360v-54h-16q-56 0 -56 -22q0 -12 12 -31l132 -219l100 178q12 20 14 46q0 22 -20 35t-53 13h-21v54h295v-54q-81 -6 -134 -93l-150 -257v-174q0 -48 1 -58.5t6 -16.5q12 -15 83 -15h22v-54h-404v54h22q71 0 83 15q5 6 6 16.5t1 58.5v161l-204 327 q-13 22 -29.5 29t-49.5 7zM246 773l136 125q32 29 48.5 37.5t43.5 8.5q28 0 48 -13t20 -32q0 -28 -43 -47l-176 -79h-77z" />
<glyph unicode="&#xde;" horiz-adv-x="759" d="M24 0v54h15q70 0 82 15q5 6 6 16.5t1 58.5v434q0 48 -1 58.5t-6 17.5q-13 14 -82 14h-15v54h389v-54h-15q-70 0 -83 -14q-7 -9 -7 -76h113q160 0 237 -48.5t77 -152.5q0 -211 -315 -211h-112v-22q0 -48 1 -58.5t6 -16.5q12 -15 83 -15h15v-54h-389zM308 221h59 q97 0 136.5 35.5t39.5 122.5q0 76 -33 110t-107 34h-40q-33 0 -44 -12t-11 -48v-242z" />
<glyph unicode="&#xdf;" d="M6 0v51h4q48 0 61.5 8t13.5 39v399q0 126 54 183t174 57q107 0 165.5 -43t58.5 -120q0 -55 -32 -94.5t-90 -57.5q75 -17 117.5 -72t42.5 -135q0 -99 -59.5 -164.5t-148.5 -65.5q-36 0 -74 15v63q31 -26 61 -26q60 0 60 181q0 177 -72 174l-26 -1q-16 3 -21 7.5t-5 14.5 q0 9 7 18t14 9l27 -3q32 6 42.5 33t10.5 90q0 65 -19 95.5t-59 30.5q-41 0 -56 -30.5t-15 -114.5v-541h-236z" />
<glyph unicode="&#xe0;" d="M36 102q0 71 60 107t230 73q12 1 33 7v52q0 52 -18.5 73.5t-63.5 21.5q-30 0 -52 -9.5t-22 -22.5l11 -22q12 -21 12 -33q0 -28 -23.5 -46.5t-58.5 -18.5t-58 21.5t-23 53.5q0 59 62.5 94t165.5 35q114 0 169.5 -38.5t55.5 -131.5v-176q0 -44 5.5 -58t21.5 -14q5 0 19 7 t20 7q15 0 15 -16q0 -32 -33.5 -57.5t-76.5 -25.5q-79 0 -106 71q-40 -39 -83 -55t-108 -16q-73 0 -113.5 31t-40.5 86zM141 674q0 21 16.5 35.5t40.5 14.5q22 0 36.5 -9.5t40.5 -41.5l113 -138h-64l-147 87q-36 21 -36 52zM203 123q0 -32 17.5 -51t46.5 -19q42 0 67 34 t25 92v56l-53 -12q-103 -23 -103 -100z" />
<glyph unicode="&#xe1;" d="M36 102q0 71 60 107t230 73q12 1 33 7v52q0 52 -18.5 73.5t-63.5 21.5q-30 0 -52 -9.5t-22 -22.5l11 -22q12 -21 12 -33q0 -28 -23.5 -46.5t-58.5 -18.5t-58 21.5t-23 53.5q0 59 62.5 94t165.5 35q114 0 169.5 -38.5t55.5 -131.5v-176q0 -44 5.5 -58t21.5 -14q5 0 19 7 t20 7q15 0 15 -16q0 -32 -33.5 -57.5t-76.5 -25.5q-79 0 -106 71q-40 -39 -83 -55t-108 -16q-73 0 -113.5 31t-40.5 86zM203 123q0 -32 17.5 -51t46.5 -19q42 0 67 34t25 92v56l-53 -12q-103 -23 -103 -100zM223 535l113 138q26 32 40.5 41.5t36.5 9.5q24 0 40.5 -14.5 t16.5 -35.5q0 -31 -36 -52l-147 -87h-64z" />
<glyph unicode="&#xe2;" d="M36 102q0 71 60 107t230 73q12 1 33 7v52q0 52 -18.5 73.5t-63.5 21.5q-30 0 -52 -9.5t-22 -22.5l11 -22q12 -21 12 -33q0 -28 -23.5 -46.5t-58.5 -18.5t-58 21.5t-23 53.5q0 59 62.5 94t165.5 35q114 0 169.5 -38.5t55.5 -131.5v-176q0 -44 5.5 -58t21.5 -14q5 0 19 7 t20 7q15 0 15 -16q0 -32 -33.5 -57.5t-76.5 -25.5q-79 0 -106 71q-40 -39 -83 -55t-108 -16q-73 0 -113.5 31t-40.5 86zM130 541l121 178h109l121 -178h-67l-108 93l-109 -93h-67zM203 123q0 -32 17.5 -51t46.5 -19q42 0 67 34t25 92v56l-53 -12q-103 -23 -103 -100z" />
<glyph unicode="&#xe3;" d="M36 102q0 71 60 107t230 73q12 1 33 7v52q0 52 -18.5 73.5t-63.5 21.5q-30 0 -52 -9.5t-22 -22.5l11 -22q12 -21 12 -33q0 -28 -23.5 -46.5t-58.5 -18.5t-58 21.5t-23 53.5q0 59 62.5 94t165.5 35q114 0 169.5 -38.5t55.5 -131.5v-176q0 -44 5.5 -58t21.5 -14q5 0 19 7 t20 7q15 0 15 -16q0 -32 -33.5 -57.5t-76.5 -25.5q-79 0 -106 71q-40 -39 -83 -55t-108 -16q-73 0 -113.5 31t-40.5 86zM116 565q9 59 42.5 97t76.5 38q34 0 96 -30q51 -24 71 -24q16 0 25.5 10.5t20.5 39.5h49q-7 -58 -43.5 -96.5t-82.5 -38.5q-26 0 -44.5 6t-56.5 27 q-39 21 -60 21q-30 0 -44 -50h-50zM203 123q0 -32 17.5 -51t46.5 -19q42 0 67 34t25 92v56l-53 -12q-103 -23 -103 -100z" />
<glyph unicode="&#xe4;" d="M36 102q0 71 60 107t230 73q12 1 33 7v52q0 52 -18.5 73.5t-63.5 21.5q-30 0 -52 -9.5t-22 -22.5l11 -22q12 -21 12 -33q0 -28 -23.5 -46.5t-58.5 -18.5t-58 21.5t-23 53.5q0 59 62.5 94t165.5 35q114 0 169.5 -38.5t55.5 -131.5v-176q0 -44 5.5 -58t21.5 -14q5 0 19 7 t20 7q15 0 15 -16q0 -32 -33.5 -57.5t-76.5 -25.5q-79 0 -106 71q-40 -39 -83 -55t-108 -16q-73 0 -113.5 31t-40.5 86zM128 631q0 29 21 49.5t50 20.5t49.5 -20.5t20.5 -49.5q0 -30 -21 -50.5t-50 -20.5t-49.5 21t-20.5 50zM203 123q0 -32 17.5 -51t46.5 -19q42 0 67 34 t25 92v56l-53 -12q-103 -23 -103 -100zM343 631q0 29 21 49.5t50 20.5q28 0 49 -20.5t21 -49.5q0 -30 -21 -50.5t-50 -20.5t-49.5 21t-20.5 50z" />
<glyph unicode="&#xe5;" d="M36 102q0 71 60 107t230 73q12 1 33 7v52q0 52 -18.5 73.5t-63.5 21.5q-30 0 -52 -9.5t-22 -22.5l11 -22q12 -21 12 -33q0 -28 -23.5 -46.5t-58.5 -18.5t-58 21.5t-23 53.5q0 59 62.5 94t165.5 35q114 0 169.5 -38.5t55.5 -131.5v-176q0 -44 5.5 -58t21.5 -14q5 0 19 7 t20 7q15 0 15 -16q0 -32 -33.5 -57.5t-76.5 -25.5q-79 0 -106 71q-40 -39 -83 -55t-108 -16q-73 0 -113.5 31t-40.5 86zM198 631q0 44 32 75.5t76 31.5t75.5 -31.5t31.5 -75.5q0 -45 -31.5 -76.5t-77.5 -31.5q-43 0 -74.5 32t-31.5 76zM203 123q0 -32 17.5 -51t46.5 -19 q42 0 67 34t25 92v56l-53 -12q-103 -23 -103 -100zM253 630q0 -22 15.5 -38.5t36.5 -16.5q22 0 37.5 16.5t15.5 39.5q0 22 -15.5 38.5t-36.5 16.5q-22 0 -37.5 -16.5t-15.5 -39.5z" />
<glyph unicode="&#xe6;" horiz-adv-x="870" d="M29 103q0 43 26 74.5t82 56.5q36 16 64.5 23.5t118.5 25.5q15 3 33 7v52q0 51 -18.5 72.5t-63.5 21.5q-30 0 -52 -9.5t-22 -22.5l11 -21q12 -21 12 -34q0 -27 -23.5 -45.5t-58.5 -18.5q-34 0 -57.5 21t-23.5 53q0 58 62 93.5t162 35.5q109 0 169 -51q68 51 156 51 q104 0 167.5 -67.5t63.5 -178.5q0 -8 -1 -14h-335q5 -175 136 -175q49 0 85 26.5t65 84.5l49 -20q-64 -159 -234 -159q-127 0 -201 91q-87 -91 -216 -91q-74 0 -115 31t-41 87zM196 123q0 -32 17.5 -51t47.5 -19q42 0 67 34t25 92v57l-53 -13q-55 -13 -79.5 -36.5 t-24.5 -63.5zM502 283h150q16 0 22 7t6 25q0 59 -20.5 90t-58.5 31q-46 0 -72 -41t-27 -112z" />
<glyph unicode="&#xe7;" horiz-adv-x="556" d="M31 229q0 113 80.5 186t205.5 73q91 0 145 -37t54 -99q0 -38 -24.5 -61.5t-65.5 -23.5q-36 0 -59 20.5t-23 52.5q0 23 21 49q11 13 11 19q0 12 -15.5 20t-37.5 8q-56 0 -87.5 -49.5t-31.5 -138.5q0 -92 33.5 -142.5t95.5 -50.5q50 0 84 30t58 92l52 -17 q-27 -86 -84.5 -130.5t-137.5 -44.5l-22 -46q26 5 41 5q36 0 59.5 -21.5t23.5 -54.5q0 -40 -39 -65t-100 -25q-50 0 -95 19l18 45q37 -17 63 -17q23 0 36 10.5t13 28.5q0 16 -11 25t-30 9q-12 0 -23 -6l-19 10l41 85q-107 13 -168.5 77.5t-61.5 164.5z" />
<glyph unicode="&#xe8;" horiz-adv-x="574" d="M32 232q0 109 76.5 182.5t192.5 73.5q109 0 174 -66t65 -178v-16h-335q0 -91 37 -133t99 -42q49 0 84.5 26.5t65.5 84.5l49 -20q-65 -159 -238 -159q-123 0 -196.5 69t-73.5 178zM123 674q0 21 16.5 35.5t40.5 14.5q22 0 36.5 -9.5t40.5 -41.5l113 -138h-64l-147 87 q-36 21 -36 52zM206 283h150q15 0 21 7t6 25q0 121 -79 121q-45 0 -71.5 -41t-26.5 -112z" />
<glyph unicode="&#xe9;" horiz-adv-x="574" d="M32 232q0 109 76.5 182.5t192.5 73.5q109 0 174 -66t65 -178v-16h-335q0 -91 37 -133t99 -42q49 0 84.5 26.5t65.5 84.5l49 -20q-65 -159 -238 -159q-123 0 -196.5 69t-73.5 178zM204 535l113 138q26 32 40.5 41.5t36.5 9.5q24 0 40.5 -14.5t16.5 -35.5q0 -31 -36 -52 l-147 -87h-64zM206 283h150q15 0 21 7t6 25q0 121 -79 121q-45 0 -71.5 -41t-26.5 -112z" />
<glyph unicode="&#xea;" horiz-adv-x="574" d="M32 232q0 109 76.5 182.5t192.5 73.5q109 0 174 -66t65 -178v-16h-335q0 -91 37 -133t99 -42q49 0 84.5 26.5t65.5 84.5l49 -20q-65 -159 -238 -159q-123 0 -196.5 69t-73.5 178zM111 541l121 178h109l121 -178h-67l-108 93l-109 -93h-67zM206 283h150q15 0 21 7t6 25 q0 121 -79 121q-45 0 -71.5 -41t-26.5 -112z" />
<glyph unicode="&#xeb;" horiz-adv-x="574" d="M32 232q0 109 76.5 182.5t192.5 73.5q109 0 174 -66t65 -178v-16h-335q0 -91 37 -133t99 -42q49 0 84.5 26.5t65.5 84.5l49 -20q-65 -159 -238 -159q-123 0 -196.5 69t-73.5 178zM109 631q0 29 21 49.5t50 20.5q28 0 49 -20.5t21 -49.5q0 -30 -21 -50.5t-50 -20.5 t-49.5 21t-20.5 50zM206 283h150q15 0 21 7t6 25q0 121 -79 121q-45 0 -71.5 -41t-26.5 -112zM324 631q0 29 21 49.5t50 20.5t49.5 -20.5t20.5 -49.5q0 -30 -21 -50.5t-50 -20.5t-49.5 21t-20.5 50z" />
<glyph unicode="&#xec;" horiz-adv-x="370" d="M20 674q0 21 16.5 35.5t40.5 14.5q22 0 36.5 -9.5t40.5 -41.5l113 -138h-64l-147 87q-36 21 -36 52zM28 0v51h14q45 0 54.5 7.5t9.5 39.5v223q0 67 -9 80.5t-55 13.5h-14v51l235 7v-376q0 -31 9 -38.5t53 -7.5h16v-51h-313z" />
<glyph unicode="&#xed;" horiz-adv-x="370" d="M28 0v51h14q45 0 54.5 7.5t9.5 39.5v223q0 67 -9 80.5t-55 13.5h-14v51l235 7v-376q0 -31 9 -38.5t53 -7.5h16v-51h-313zM102 535l113 138q26 32 40.5 41.5t36.5 9.5q24 0 40.5 -14.5t16.5 -35.5q0 -31 -36 -52l-147 -87h-64z" />
<glyph unicode="&#xee;" horiz-adv-x="370" d="M9 541l121 178h109l121 -178h-67l-108 93l-109 -93h-67zM28 0v51h14q45 0 54.5 7.5t9.5 39.5v223q0 67 -9 80.5t-55 13.5h-14v51l235 7v-376q0 -31 9 -38.5t53 -7.5h16v-51h-313z" />
<glyph unicode="&#xef;" horiz-adv-x="370" d="M7 631q0 29 21 49.5t50 20.5q28 0 49 -20.5t21 -49.5q0 -30 -21 -50.5t-50 -20.5t-49.5 21t-20.5 50zM28 0v51h14q45 0 54.5 7.5t9.5 39.5v223q0 67 -9 80.5t-55 13.5h-14v51l235 7v-376q0 -31 9 -38.5t53 -7.5h16v-51h-313zM222 631q0 29 21 49.5t50 20.5t49.5 -20.5 t20.5 -49.5q0 -30 -21 -50.5t-50 -20.5t-49.5 21t-20.5 50z" />
<glyph unicode="&#xf0;" d="M31 236q0 106 78 179t192 73q23 0 45 -6q-55 101 -121 158l-116 -72l-27 43l102 65q-31 31 -102 68l32 39q57 -21 114 -53q1 0 5.5 -3t10 -6t7.5 -4l125 76l28 -45l-108 -65q283 -215 283 -437q0 -116 -76.5 -188.5t-198.5 -72.5q-119 0 -196 71t-77 180zM204 236 q0 -199 101 -199q48 0 74.5 51.5t26.5 146.5q0 201 -100 201q-102 0 -102 -200z" />
<glyph unicode="&#xf1;" horiz-adv-x="685" d="M20 0v51h14q46 0 55.5 7.5t9.5 39.5v220q0 70 -9 83.5t-55 13.5h-15v51l229 7v-88q37 56 78 79.5t100 23.5q82 0 124 -48q38 -41 38 -129v-213q0 -32 9.5 -39.5t55.5 -7.5h14v-51h-305v51q44 0 56.5 8.5t12.5 37.5v200q0 98 -73 98q-27 0 -51 -16t-36 -43 q-16 -32 -16 -95v-144q0 -29 12.5 -37.5t56.5 -8.5v-51h-305zM153 565q9 59 42.5 97t76.5 38q34 0 96 -30q51 -24 71 -24q16 0 25.5 10.5t20.5 39.5h49q-7 -58 -43.5 -96.5t-82.5 -38.5q-26 0 -44.5 6t-56.5 27q-39 21 -60 21q-30 0 -44 -50h-50z" />
<glyph unicode="&#xf2;" d="M31 236q0 108 79 180t198 72q114 0 192.5 -73.5t78.5 -180.5t-78.5 -178t-196.5 -71t-195.5 71t-77.5 180zM141 674q0 21 16.5 35.5t40.5 14.5q22 0 36.5 -9.5t40.5 -41.5l113 -138h-64l-147 87q-36 21 -36 52zM204 236q0 -199 101 -199q48 0 74.5 51.5t26.5 146.5 q0 201 -100 201q-102 0 -102 -200z" />
<glyph unicode="&#xf3;" d="M31 236q0 108 79 180t198 72q114 0 192.5 -73.5t78.5 -180.5t-78.5 -178t-196.5 -71t-195.5 71t-77.5 180zM204 236q0 -199 101 -199q48 0 74.5 51.5t26.5 146.5q0 201 -100 201q-102 0 -102 -200zM223 535l113 138q26 32 40.5 41.5t36.5 9.5q24 0 40.5 -14.5t16.5 -35.5 q0 -31 -36 -52l-147 -87h-64z" />
<glyph unicode="&#xf4;" d="M31 236q0 108 79 180t198 72q114 0 192.5 -73.5t78.5 -180.5t-78.5 -178t-196.5 -71t-195.5 71t-77.5 180zM130 541l121 178h109l121 -178h-67l-108 93l-109 -93h-67zM204 236q0 -199 101 -199q48 0 74.5 51.5t26.5 146.5q0 201 -100 201q-102 0 -102 -200z" />
<glyph unicode="&#xf5;" d="M31 236q0 108 79 180t198 72q114 0 192.5 -73.5t78.5 -180.5t-78.5 -178t-196.5 -71t-195.5 71t-77.5 180zM116 565q9 59 42.5 97t76.5 38q34 0 96 -30q51 -24 71 -24q16 0 25.5 10.5t20.5 39.5h49q-7 -58 -43.5 -96.5t-82.5 -38.5q-26 0 -44.5 6t-56.5 27q-39 21 -60 21 q-30 0 -44 -50h-50zM204 236q0 -199 101 -199q48 0 74.5 51.5t26.5 146.5q0 201 -100 201q-102 0 -102 -200z" />
<glyph unicode="&#xf6;" d="M31 236q0 108 79 180t198 72q114 0 192.5 -73.5t78.5 -180.5t-78.5 -178t-196.5 -71t-195.5 71t-77.5 180zM128 631q0 29 21 49.5t50 20.5t49.5 -20.5t20.5 -49.5q0 -30 -21 -50.5t-50 -20.5t-49.5 21t-20.5 50zM204 236q0 -199 101 -199q48 0 74.5 51.5t26.5 146.5 q0 201 -100 201q-102 0 -102 -200zM343 631q0 29 21 49.5t50 20.5q28 0 49 -20.5t21 -49.5q0 -30 -21 -50.5t-50 -20.5t-49.5 21t-20.5 50z" />
<glyph unicode="&#xf7;" horiz-adv-x="606" d="M44 200v100h518v-100h-518zM209 70q0 38 27.5 66t66.5 28t66.5 -28t27.5 -66q0 -39 -27.5 -66.5t-66.5 -27.5t-66.5 27.5t-27.5 66.5zM209 431q0 38 27.5 66t66.5 28t66.5 -28t27.5 -66q0 -39 -27.5 -66.5t-66.5 -27.5t-66.5 27.5t-27.5 66.5z" />
<glyph unicode="&#xf8;" d="M31 236q0 106 78.5 179t192.5 73q58 0 109 -19l54 94h58l-67 -116q123 -79 123 -213q0 -107 -78 -178t-196 -71q-56 0 -107 18l-54 -93h-58l66 114q-56 31 -88.5 88t-32.5 124zM204 235q0 -61 10 -105l158 273q-27 33 -67 33q-101 0 -101 -201zM238 71q27 -34 66 -34 q49 0 75.5 51.5t26.5 146.5q0 63 -10 108z" />
<glyph unicode="&#xf9;" horiz-adv-x="685" d="M13 415v51l237 7v-288q0 -57 16.5 -82t54.5 -25q28 0 52.5 15.5t36.5 41.5q17 33 17 103v80q0 70 -9 83.5t-55 13.5h-16v51l237 7v-365q0 -27 10 -35t45 -8h28v-54l-233 -11v82q-43 -53 -83.5 -75t-93.5 -22q-106 0 -148 86q-10 21 -13 42.5t-3 77.5v127q-1 71 -9.5 84 t-54.5 13h-16zM178 674q0 21 16.5 35.5t40.5 14.5q22 0 36.5 -9.5t40.5 -41.5l113 -138h-64l-147 87q-36 21 -36 52z" />
<glyph unicode="&#xfa;" horiz-adv-x="685" d="M13 415v51l237 7v-288q0 -57 16.5 -82t54.5 -25q28 0 52.5 15.5t36.5 41.5q17 33 17 103v80q0 70 -9 83.5t-55 13.5h-16v51l237 7v-365q0 -27 10 -35t45 -8h28v-54l-233 -11v82q-43 -53 -83.5 -75t-93.5 -22q-106 0 -148 86q-10 21 -13 42.5t-3 77.5v127q-1 71 -9.5 84 t-54.5 13h-16zM260 535l113 138q26 32 40.5 41.5t36.5 9.5q24 0 40.5 -14.5t16.5 -35.5q0 -31 -36 -52l-147 -87h-64z" />
<glyph unicode="&#xfb;" horiz-adv-x="685" d="M13 415v51l237 7v-288q0 -57 16.5 -82t54.5 -25q28 0 52.5 15.5t36.5 41.5q17 33 17 103v80q0 70 -9 83.5t-55 13.5h-16v51l237 7v-365q0 -27 10 -35t45 -8h28v-54l-233 -11v82q-43 -53 -83.5 -75t-93.5 -22q-106 0 -148 86q-10 21 -13 42.5t-3 77.5v127q-1 71 -9.5 84 t-54.5 13h-16zM167 541l121 178h109l121 -178h-67l-108 93l-109 -93h-67z" />
<glyph unicode="&#xfc;" horiz-adv-x="685" d="M13 415v51l237 7v-288q0 -57 16.5 -82t54.5 -25q28 0 52.5 15.5t36.5 41.5q17 33 17 103v80q0 70 -9 83.5t-55 13.5h-16v51l237 7v-365q0 -27 10 -35t45 -8h28v-54l-233 -11v82q-43 -53 -83.5 -75t-93.5 -22q-106 0 -148 86q-10 21 -13 42.5t-3 77.5v127q-1 71 -9.5 84 t-54.5 13h-16zM165 631q0 29 21 49.5t50 20.5q28 0 49 -20.5t21 -49.5q0 -30 -21 -50.5t-50 -20.5t-49.5 21t-20.5 50zM380 631q0 29 21 49.5t50 20.5t49.5 -20.5t20.5 -49.5q0 -30 -21 -50.5t-50 -20.5t-49.5 21t-20.5 50z" />
<glyph unicode="&#xfd;" d="M10 -114q0 37 25 62t62 25q33 0 54 -19t21 -49q0 -9 -4.5 -20.5t-4.5 -16.5q0 -6 9 -6q42 -1 85 79l23 43l-205 398q-13 25 -23.5 32t-37.5 8v51h284v-51h-18q-35 0 -35 -21q0 -11 8 -27l106 -216l83 183q9 22 9 41q0 40 -63 40h-15v51h225v-51q-31 -2 -50.5 -19.5 t-40.5 -62.5l-175 -377q-41 -89 -88 -129t-110 -40q-56 0 -90 25.5t-34 66.5zM253 535l113 138q26 32 40.5 41.5t36.5 9.5q24 0 40.5 -14.5t16.5 -35.5q0 -31 -36 -52l-147 -87h-64z" />
<glyph unicode="&#xfe;" horiz-adv-x="667" d="M18 -152h14q46 0 55.5 7.5t9.5 39.5v679q0 71 -8.5 84.5t-55.5 13.5h-15v50l236 14v-327q34 43 69.5 61t86.5 18q96 0 159 -68t63 -171q0 -112 -67.5 -188t-168.5 -76q-84 0 -142 65v-155q0 -30 13.5 -38.5t62.5 -8.5h11v-50h-323v50zM253 229q0 -84 27.5 -130t77.5 -46 q49 0 75 47.5t26 136.5q0 176 -93 176q-55 0 -84 -47.5t-29 -136.5z" />
<glyph unicode="&#xff;" d="M10 -114q0 37 25 62t62 25q33 0 54 -19t21 -49q0 -9 -4.5 -20.5t-4.5 -16.5q0 -6 9 -6q42 -1 85 79l23 43l-205 398q-13 25 -23.5 32t-37.5 8v51h284v-51h-18q-35 0 -35 -21q0 -11 8 -27l106 -216l83 183q9 22 9 41q0 40 -63 40h-15v51h225v-51q-31 -2 -50.5 -19.5 t-40.5 -62.5l-175 -377q-41 -89 -88 -129t-110 -40q-56 0 -90 25.5t-34 66.5zM158 631q0 29 21 49.5t50 20.5t49.5 -20.5t20.5 -49.5q0 -30 -21 -50.5t-50 -20.5t-49.5 21t-20.5 50zM373 631q0 29 21 49.5t50 20.5q28 0 49 -20.5t21 -49.5q0 -30 -21 -50.5t-50 -20.5 t-49.5 21t-20.5 50z" />
<glyph unicode="&#x152;" horiz-adv-x="1000" d="M5 358q0 70 26.5 139.5t73.5 119.5q99 105 258 105h607l5 -260h-52q-22 84 -57 132q-25 34 -66.5 54t-85.5 20h-6q-43 0 -58 -23q-10 -14 -10 -63v-181h38q35 0 65.5 38t38.5 104h54v-339h-54q-8 66 -38.5 104t-65.5 38h-38v-221q0 -43 14.5 -57t57.5 -14h7q88 0 150 75 q41 49 65 140h53l-11 -269h-610q-165 0 -261 101q-47 50 -73.5 118t-26.5 139zM205 369q0 -150 27 -221q16 -43 52 -68.5t80 -25.5q52 0 75 33q21 31 21 104v353q0 65 -23.5 94.5t-75.5 29.5q-81 0 -118.5 -71.5t-37.5 -227.5z" />
<glyph unicode="&#x153;" horiz-adv-x="907" d="M35 237q0 104 79.5 177.5t186.5 73.5q86 0 170 -63q76 63 168 63q105 0 169 -67.5t64 -177.5v-15h-322q3 -89 38 -132t93 -43q85 0 142 111l49 -20q-66 -159 -229 -159q-102 0 -175 59q-75 -59 -167 -59q-113 0 -189.5 72.5t-76.5 179.5zM208 236q0 -199 93 -199 q94 0 94 199q0 200 -92 200q-95 0 -95 -200zM551 283h137q16 0 21.5 7t5.5 26q0 58 -19 89t-54 31q-42 0 -66.5 -39.5t-24.5 -113.5z" />
<glyph unicode="&#x178;" horiz-adv-x="722" d="M-12 668v54h360v-54h-16q-56 0 -56 -22q0 -12 12 -31l132 -219l100 178q12 20 14 46q0 22 -20 35t-53 13h-21v54h295v-54q-81 -6 -134 -93l-150 -257v-174q0 -48 1 -58.5t6 -16.5q12 -15 83 -15h22v-54h-404v54h22q71 0 83 15q5 6 6 16.5t1 58.5v161l-204 327 q-13 22 -29.5 29t-49.5 7zM184 860q0 29 21 49.5t50 20.5t49.5 -21t20.5 -49q0 -30 -21 -50.5t-50 -20.5t-49.5 21t-20.5 50zM399 860q0 29 21 49.5t50 20.5q28 0 49 -21t21 -49q0 -30 -21 -50.5t-50 -20.5t-49.5 21t-20.5 50z" />
<glyph unicode="&#x2c6;" horiz-adv-x="333" d="M-9 541l121 178h109l121 -178h-67l-108 93l-109 -93h-67z" />
<glyph unicode="&#x2dc;" horiz-adv-x="333" d="M-23 565q9 59 42.5 97t76.5 38q34 0 96 -30q51 -24 71 -24q16 0 25.5 10.5t20.5 39.5h49q-7 -58 -43.5 -96.5t-82.5 -38.5q-26 0 -44.5 6t-56.5 27q-39 21 -60 21q-30 0 -44 -50h-50z" />
<glyph unicode="&#x2000;" horiz-adv-x="491" />
<glyph unicode="&#x2001;" horiz-adv-x="982" />
<glyph unicode="&#x2002;" horiz-adv-x="491" />
<glyph unicode="&#x2003;" horiz-adv-x="982" />
<glyph unicode="&#x2004;" horiz-adv-x="327" />
<glyph unicode="&#x2005;" horiz-adv-x="245" />
<glyph unicode="&#x2006;" horiz-adv-x="163" />
<glyph unicode="&#x2007;" horiz-adv-x="163" />
<glyph unicode="&#x2008;" horiz-adv-x="122" />
<glyph unicode="&#x2009;" horiz-adv-x="196" />
<glyph unicode="&#x200a;" horiz-adv-x="54" />
<glyph unicode="&#x2010;" horiz-adv-x="333" d="M42 180v130h249v-130h-249z" />
<glyph unicode="&#x2011;" horiz-adv-x="333" d="M42 180v130h249v-130h-249z" />
<glyph unicode="&#x2012;" horiz-adv-x="333" d="M42 180v130h249v-130h-249z" />
<glyph unicode="&#x2013;" horiz-adv-x="500" d="M0 191v105h500v-105h-500z" />
<glyph unicode="&#x2014;" horiz-adv-x="1000" d="M0 191v105h1000v-105h-1000z" />
<glyph unicode="&#x2018;" horiz-adv-x="241" d="M22 509q0 136 169 238l27 -41q-99 -69 -99 -129l4 -6q8 2 12 2q36 0 60 -24.5t24 -61.5q0 -42 -27.5 -70.5t-68.5 -28.5q-45 0 -73 33.5t-28 87.5z" />
<glyph unicode="&#x2019;" horiz-adv-x="241" d="M22 638q0 42 27.5 70.5t68.5 28.5q45 0 73 -33.5t28 -86.5q0 -136 -169 -238l-27 41q46 31 72.5 65.5t26.5 62.5l-4 6q-8 -2 -12 -2q-36 0 -60 24.5t-24 61.5z" />
<glyph unicode="&#x201a;" horiz-adv-x="241" d="M22 75q0 41 28 69.5t68 28.5q45 0 73 -33.5t28 -87.5q0 -136 -169 -238l-27 41q99 69 99 129q0 6 -4 6h-4q-2 -1 -8 -1q-36 0 -60 24.5t-24 61.5z" />
<glyph unicode="&#x201c;" horiz-adv-x="481" d="M22 509q0 136 169 238l27 -41q-99 -69 -99 -129l4 -6q8 2 12 2q36 0 60 -24.5t24 -61.5q0 -42 -27.5 -70.5t-68.5 -28.5q-45 0 -73 33.5t-28 87.5zM260 509q0 136 169 238l27 -41q-99 -69 -99 -129l4 -6q8 2 12 2q36 0 60 -24.5t24 -61.5q0 -42 -27.5 -70.5t-68.5 -28.5 q-45 0 -73 33.5t-28 87.5z" />
<glyph unicode="&#x201d;" horiz-adv-x="481" d="M23 638q0 42 27.5 70.5t68.5 28.5q45 0 73 -33.5t28 -86.5q0 -136 -169 -238l-27 41q46 31 72.5 65.5t26.5 62.5l-4 6q-8 -2 -12 -2q-36 0 -60 24.5t-24 61.5zM261 638q0 42 27.5 70.5t68.5 28.5q45 0 73 -33.5t28 -86.5q0 -136 -169 -238l-27 41q46 31 72.5 65.5 t26.5 62.5l-4 6q-8 -2 -12 -2q-36 0 -60 24.5t-24 61.5z" />
<glyph unicode="&#x201e;" horiz-adv-x="481" d="M23 75q0 41 28 69.5t68 28.5q45 0 73 -33.5t28 -87.5q0 -136 -169 -238l-27 41q99 69 99 129q0 6 -4 6h-4q-2 -1 -8 -1q-36 0 -60 24.5t-24 61.5zM261 75q0 41 28 69.5t68 28.5q45 0 73 -33.5t28 -87.5q0 -136 -169 -238l-27 41q99 69 99 129q0 6 -4 6h-4q-2 -1 -8 -1 q-36 0 -60 24.5t-24 61.5z" />
<glyph unicode="&#x2022;" horiz-adv-x="606" d="M131 352q0 71 50.5 121.5t121.5 50.5t121.5 -50.5t50.5 -121.5q0 -72 -50.5 -122t-123.5 -50q-69 0 -119.5 51t-50.5 121z" />
<glyph unicode="&#x2026;" horiz-adv-x="1000" d="M73 79q0 39 27.5 66.5t66.5 27.5t66.5 -27.5t27.5 -66.5t-27.5 -66.5t-67.5 -27.5q-38 0 -65.5 28t-27.5 66zM406 79q0 39 27.5 66.5t66.5 27.5t66.5 -27.5t27.5 -66.5t-27.5 -66.5t-67.5 -27.5q-38 0 -65.5 28t-27.5 66zM739 79q0 39 27.5 66.5t66.5 27.5t66.5 -27.5 t27.5 -66.5t-27.5 -66.5t-67.5 -27.5q-38 0 -65.5 28t-27.5 66z" />
<glyph unicode="&#x202f;" horiz-adv-x="196" />
<glyph unicode="&#x2039;" horiz-adv-x="333" d="M72 252v14l153 133q19 20 29 20q4 0 8 -4t4 -8q0 -8 -19 -41l-64 -107l64 -107q19 -32 19 -40q0 -4 -4.5 -8t-8.5 -4q-8 0 -28 20z" />
<glyph unicode="&#x203a;" horiz-adv-x="333" d="M74 112q0 10 19 40l64 107l-64 107q-19 30 -19 41q0 4 4.5 8t8.5 4q8 0 28 -20l154 -133v-14l-154 -132q-20 -20 -29 -20q-4 0 -8 4t-4 8z" />
<glyph unicode="&#x205f;" horiz-adv-x="245" />
<glyph unicode="&#x20ac;" horiz-adv-x="574" d="M3 268l19 57h32q-1 11 -1 20q0 22 2 36h-52l18 57h40q19 126 100 202.5t184 76.5q42 0 72.5 -11t69.5 -41l41 48h35v-193l-41 -6q-50 153 -165 153q-133 0 -147 -229h261l-19 -57h-245v-20q0 -18 1 -36h226l-19 -57h-204q9 -114 46 -168.5t105 -54.5q59 0 97 33t63 110 l41 -6v-193h-35l-41 48q-68 -52 -149 -52q-108 0 -185 73.5t-95 209.5h-55z" />
<glyph unicode="&#x2122;" horiz-adv-x="1000" d="M44 580l8 142h361l9 -142h-39q-11 55 -31 79q-23 26 -53 26q-8 0 -8 -14v-233q0 -30 3 -33q3 -4 34 -4h14v-38h-219v38h15q30 0 33 4q3 3 3 33v233q0 14 -8 14q-34 0 -56 -32q-18 -23 -27 -73h-39zM444 363v38q29 0 42 11q12 11 12 62v173q0 30 -2 32q-4 5 -39 5h-9v38 h182l75 -189l71 189h179v-38h-9q-30 0 -33 -4q-3 -2 -3 -33v-209q0 -30 3 -33q3 -4 33 -4h9v-38h-208v38h9q31 0 34 4q3 3 3 33v193l-102 -268h-41l-104 266v-155q0 -52 9 -60q12 -13 46 -13v-38h-157z" />
<glyph unicode="&#xe000;" horiz-adv-x="475" d="M0 0v475h475v-475h-475z" />
</font>
</defs>
</svg>
